西西论坛

 找回密码
 立即注册
搜索

正义的子弹 Bullets.of.Justice.2019.1080p.BluRay.x264-JustWatch 10.03GB

[复制链接]
admin 发表于 5 天前 | 显示全部楼层 |阅读模式
正义的子弹 Bullets.of.Justice.2019.1080p.BluRay.x264-JustWatch 10.03GB                                                                                                                                                                                                                                                                                                                                                                                                                                                                                                                                        -->
帖子完整标题:正义的子弹 Bullets.of.Justice.2019.1080p.BluRay.x264-JustWatch 10.03GB



0440c392c168cea46118269663712088.jpg

[/url]

◎译  名 正义的子弹
◎片  名 Bullets of Justice
◎年  代 2019
◎产  地 哈萨克斯坦,保加利亚
◎类  别 动作 / 科幻 / 恐怖
◎语  言 英语
◎上映日期 2019-08-23(英国) / 2020-10-15(美国网络)
◎豆瓣评分 4.6/10 from 1708 users
◎豆瓣链接 
◎片  长 79分钟
◎导  演 瓦列·米利夫 Valeri Milev
◎编  剧 瓦列·米利夫 Valeri Milev
◎主  演 丹尼·特雷霍 Danny Trejo
       雅娜·梅里诺娃 Yana Marinova

◎标  签 正义的子弹 | 恐怖 | 很想看 | 惊悚 | 超刺激 | 科幻 | 魔幻 | 66

◎简  介

  在第三次世界大战期间,美国政府发起了一个秘密的项目代号为“陆军培根”,以创造超级士兵近交人与猪。25年后,一种叫做“枪口”已经占据食物链的顶端,吃和人类饲养动物一样。罗布正义是一个前赏金猎人工作的最后一行人类抵抗-一组幸存者躲藏在核掩体深处地下。他的任务是找出枪口上台并消灭他们。
Video
ID                                       : 1
Format                                   : AVC
Format/Info                              : Advanced Video Codec
Format profile                           :
Format settings                          : CABAC / 5 Ref Frames
Format settings, CABAC                   : Yes
Format settings, Reference frames        : 5 frames
Codec ID                                 : V_MPEG4/ISO/AVC
Duration                                 : 1 h 19 min
Bit rate                                 : 14.4 Mb/s
Width                                    : 1 920 pixels
Height                                   : 808 pixels
Display aspect ratio                     : 2.40:1
Frame rate mode                          : Constant
Frame rate                               : 24.000 FPS
Color space                              : YUV
Chroma subsampling                       : 4:2:0
Bit depth                                : 8 bits
Scan type                                : Progressive
Bits/(Pixel*Frame)                       : 0.387
Stream size                              : 8.02 GiB (80%)
Writing library                          : x264 core 163 r3059 b684ebe
Encoding settings                        : cabac=1 / ref=5 / deblock=1:-3:-3 / analyse=0x3:0x133 / me=umh / subme=9 / psy=1 / psy_rd=1.00:0.00 / mixed_ref=1 / me_range=16 / chroma_me=1 / trellis=2 / 8x8dct=1 / cqm=0 / deadzone=21,11 / fast_pskip=0 / chroma_qp_offset=-2 / threads=24 / lookahead_threads=2 / sliced_threads=0 / nr=0 / decimate=1 / interlaced=0 / bluray_compat=0 / constrained_intra=0 / bframes=3 / b_pyramid=2 / b_adapt=2 / b_bias=0 / direct=3 / weightb=1 / open_gop=0 / weightp=2 / keyint=250 / keyint_min=24 / scenecut=40 / intra_refresh=0 / rc_lookahead=60 / rc=crf / mbtree=1 / crf=17.9 / qcomp=0.60 / qpmin=0 / qpmax=69 / qpstep=4 / ip_ratio=1.40 / aq=1:1.00
Language                                 : English
Default                                  : Yes
Forced                                   : No

Audio
ID                                       : 2
Format                                   : DTS XLL
Format/Info                              : Digital Theater Systems
Commercial name                          : DTS-HD Master Audio
Codec ID                                 : A_DTS
Duration                                 : 1 h 19 min
Bit rate mode                            : Variable
Bit rate                                 : 3 597 kb/s
Channel(s)                               : 6 channels
Channel layout                           : C L R Ls Rs LFE
Sampling rate                            : 48.0 kHz
Frame rate                               : 93.750 FPS (512 SPF)
Bit depth                                : 24 bits
Compression mode                         : Lossless
Stream size                              : 2.00 GiB (20%)
Language                                 : English
Default                                  : Yes
Forced                                   : No

Text
ID                                       : 3
Format                                   : PGS
Muxing mode                              : zlib
Codec ID                                 : S_HDMV/PGS
Codec ID/Info                            : Picture based subtitle format used on BDs/HD-DVDs
Duration                                 : 1 h 16 min
Bit rate                                 : 14.5 kb/s
Count of elements                        : 852
Stream size                              : 7.93 MiB (0%)
Language                                 : German
Default                                  : No
Forced                                   : No

Menu
00:00:00.000                             : :Chapter 01
00:06:14.917                             : :Chapter 02
00:20:13.083                             : :Chapter 03
00:31:08.250                             : :Chapter 04
00:42:14.875                             : :Chapter 05
00:50:12.167                             : :Chapter 06
00:58:02.250                             : :Chapter 07
01:10:32.042                             : :Chapter 08
01:18:15.042                             : :Chapter 09
01:19:25.833                             : :Chapter 10

3b84c2f5ffc06183c077a301fb7bee7b.jpg

[/url]



                                                                                                                                                                                                        
                                                                                                                                                                                                                                                                                                                                                                                                                                                                                                                                                                                                                                                                                                                                                                                                                                                        
3eb4b23b20c9a021bb9d7b2bfdde21bc.torrent (50.98 KB, 下载次数: 0)

回复

使用道具 举报

小黑屋|西西论坛

本网站所有资源来自网络,如无意中侵犯了您的权益,请发邮件至 [email protected],立即清除相关链接

GMT+8, 2021-6-15 01:32 , Processed in 0.066880 second(s), 17 queries .

Powered by Discuz! X3.2

© 2001-2013 Comsenz Inc.

快速回复 返回顶部 返回列表