西西论坛

 找回密码
 立即注册
搜索

苏州河 Suzhou.River.2000.CHINESE.1080p.BluRay.x264.FLAC.2.0-PTer 9.24GB

[复制链接]
admin 发表于 5 天前 | 显示全部楼层 |阅读模式
苏州河 Suzhou.River.2000.CHINESE.1080p.BluRay.x264.FLAC.2.0-PTer 9.24GB                                                                                                                                                                                                                                                                                                                                                                                                                                                                                                                                        -->
帖子完整标题:苏州河 Suzhou.River.2000.CHINESE.1080p.BluRay.x264.FLAC.2.0-PTer 9.24GB



7c718d8f28d49e7415a7d29d28b507bb.jpg

[/url]

◎译  名 Suzhou River
◎片  名 苏州河
◎年  代 2000
◎产  地 中国大陆,德国
◎类  别 剧情 / 爱情
◎语  言 汉语普通话
◎上映日期 2000-09-07(中国香港)
◎豆瓣评分 8.1/10 from 167064 users
◎豆瓣链接 
◎片  长 83 分钟
◎导  演 娄烨 Ye Lou
◎编  剧 娄烨 Ye Lou
◎主  演 周迅 Xun Zhou
       贾宏声 Jia Hongsheng
       华仲凯 Zhongkai Hua
       姚安濂 Anlian Yao
       耐安 An Nai

◎标  签 娄烨 | 周迅 | 文艺 | 爱情 | 苏州河 | 中国电影 | 大陆 | 中国

◎简  介

  上海苏州河上,用摩托车替人送货的马达(贾宏声)接下送接纯真少女牡丹(周迅)的活,两人相处时,牡丹爱上马达,但就在她决定把终身托付给对方时,马达财迷心窍联合黑道朋友绑架了她,令牡丹心灰意冷跳进苏州河里。临跳前,牡丹丢下会变成美人鱼再寻马达的话。
  
  五年后,为自己行为懊悔不迭的马达疑惑牡丹又回来了,开始四处找寻。当在某酒吧里看到扮美人鱼表演的美美(周迅)时,马达认定她就是牡丹,然而美美不过是另一个痴情女子而已。

◎获奖情况

  第1届华语电影传媒大奖 ?(2001)
  年度十佳华语电影
Video
ID                                       : 1
Format                                   : AVC
Format/Info                              : Advanced Video Codec
Format profile                           :
Format settings                          : 4 Ref Frames
Format settings, CABAC                   : No
Format settings, Reference frames        : 4 frames
Codec ID                                 : V_MPEG4/ISO/AVC
Duration                                 : 1 h 22 min
Bit rate                                 : 15.7 Mb/s
Width                                    : 1 920 pixels
Height                                   : 1 080 pixels
Display aspect ratio                     : 16:9
Frame rate mode                          : Constant
Frame rate                               : 24.000 FPS
Color space                              : YUV
Chroma subsampling                       : 4:2:0
Bit depth                                : 8 bits
Scan type                                : Progressive
Bits/(Pixel*Frame)                       : 0.316
Stream size                              : 9.08 GiB (98%)
Writing library                          : x264 core 161 r3027 4121277
Encoding settings                        : cabac=0 / ref=1 / deblock=1:-3:-3 / analyse=0:0 / me=umh / subme=11 / psy=1 / psy_rd=1.02:0.00 / mixed_ref=0 / me_range=32 / chroma_me=1 / trellis=2 / 8x8dct=0 / cqm=0 / deadzone=21,11 / fast_pskip=0 / chroma_qp_offset=-2 / threads=24 / lookahead_threads=4 / sliced_threads=0 / nr=0 / decimate=0 / interlaced=0 / bluray_compat=0 / constrained_intra=0 / bframes=9 / b_pyramid=2 / b_adapt=2 / b_bias=0 / direct=3 / weightb=0 / open_gop=0 / weightp=0 / keyint=250 / keyint_min=24 / scenecut=0 / intra_refresh=0 / rc_lookahead=250 / rc=crf / mbtree=0 / crf=19.5 / qcomp=0.60 / qpmin=0 / qpmax=69 / qpstep=4 / vbv_maxrate=62500 / vbv_bufsize=78125 / crf_max=0.0 / nal_hrd=none / filler=0 / ip_ratio=1.30 / pb_ratio=1.20 / aq=3:0.80
Language                                 : English
Default                                  : Yes
Forced                                   : No
Color range                              : Limited
Color primaries                          : BT.709
Matrix coefficients                      : BT.709

Audio
ID                                       : 2
Format                                   : FLAC
Format/Info                              : Free Lossless Audio Codec
Codec ID                                 : A_FLAC
Duration                                 : 1 h 22 min
Bit rate mode                            : Variable
Bit rate                                 : 271 kb/s
Channel(s)                               : 2 channels
Channel layout                           : L R
Sampling rate                            : 48.0 kHz
Frame rate                               : 11.719 FPS (4096 SPF)
Bit depth                                : 16 bits
Compression mode                         : Lossless
Stream size                              : 160 MiB (2%)
Title                                    : Mandarin
Writing library                          : libFLAC 1.2.1 (UTC 2007-09-17)
Language                                 : Chinese
Default                                  : Yes
Forced                                   : No

Text #1
ID                                       : 3
Format                                   : UTF-8
Codec ID                                 : S_TEXT/UTF8
Codec ID/Info                            : UTF-8 Plain Text
Duration                                 : 1 h 19 min
Bit rate                                 : 28 b/s
Count of elements                        : 652
Stream size                              : 16.5 KiB (0%)
Title                                    : Chinses Simplified
Language                                 : Chinese
Default                                  : Yes
Forced                                   : No

Text #2
ID                                       : 4
Format                                   : UTF-8
Codec ID                                 : S_TEXT/UTF8
Codec ID/Info                            : UTF-8 Plain Text
Duration                                 : 1 h 19 min
Bit rate                                 : 28 b/s
Count of elements                        : 652
Stream size                              : 16.5 KiB (0%)
Title                                    : Chinses Traditional
Language                                 : Chinese
Default                                  : No
Forced                                   : No

Text #3
ID                                       : 5
Format                                   : UTF-8
Codec ID                                 : S_TEXT/UTF8
Codec ID/Info                            : UTF-8 Plain Text
Duration                                 : 1 h 19 min
Bit rate                                 : 30 b/s
Count of elements                        : 644
Stream size                              : 17.8 KiB (0%)
Title                                    : english
Language                                 : English
Default                                  : No
Forced                                   : No

Menu
00:00:00.000                             : en:Chapter 01
00:10:29.125                             : en:Chapter 02
00:21:01.542                             : en:Chapter 03
00:31:26.417                             : en:Chapter 04
00:41:31.417                             : en:Chapter 05
00:50:16.458                             : en:Chapter 06
01:02:13.500                             : en:Chapter 07
01:12:11.917                             : en:Chapter 08

fe2c754dd67e83a053f1759a1bd35f12.png

[/url]66ca09b956439abcad3eb4f9e0fd29e7.png

[/url]395418a25c035d84d8c03e4f292aa3bc.png

[/url]



                                                                                                                                                                                                        
                                                                                                                                                                                                                                                                                                                                                                                                                                                                                                                                                                                                                                                                                                                                                                                                                                                        
be27207b99dfd599cb2383756243b16f.torrent (46.83 KB, 下载次数: 0)

回复

使用道具 举报

小黑屋|西西论坛

本网站所有资源来自网络,如无意中侵犯了您的权益,请发邮件至 [email protected],立即清除相关链接

GMT+8, 2021-6-15 01:26 , Processed in 0.061606 second(s), 17 queries .

Powered by Discuz! X3.2

© 2001-2013 Comsenz Inc.

快速回复 返回顶部 返回列表