西西论坛

 找回密码
 立即注册
搜索

唐伯虎點秋香 Flirting.Scholar.1993.CHINESE.1080p.BluRay.x264.DD5.1-C0KE 11.01GB ...

[复制链接]
admin 发表于 6 天前 | 显示全部楼层 |阅读模式
唐伯虎點秋香 Flirting.Scholar.1993.CHINESE.1080p.BluRay.x264.DD5.1-C0KE 11.01GB                                                                                                                                                                                                                                                                                                                                                                                                                                                                                                                                        -->
帖子完整标题:唐伯虎點秋香 Flirting.Scholar.1993.CHINESE.1080p.BluRay.x264.DD5.1-C0KE 11.01GB



a26b727b40f76a78c032b230906abca0.jpg

[/url]

◎译  名 唐伯虎点秋香/Flirting Scholar
◎片  名 唐伯虎點秋香
◎年  代 1993
◎产  地 中国香港
◎类  别 喜剧 / 爱情 / 古装
◎语  言 粤语
◎上映日期 1993-07-01(中国香港)
◎豆瓣评分 8.7/10 from 865319 users
◎豆瓣链接 
◎片  长 102 分钟
◎导  演 李力持 Lik-Chi Lee
◎编  剧 李力持 Lik-Chi Lee / 谷德昭 Vincent Kok / 陈文强 Man Keung Chan
◎主  演 周星驰 Stephen Chow
       巩俐 Li Gong
       陈百祥 Pak-cheung Chan
       郑佩佩 Pei-pei Cheng
       朱咪咪 Mimi Chu
       梁家仁 Ka-Yan Leung
       苑琼丹 King-Tan Yuen
       梁荣忠 Wing-Chung Leung
       黄一山 Gabriel Wong
       黄霑 James Wong
       吴镇宇 Francis Ng
       刘家辉 Chia Hui Liu
       蓝洁瑛 Kit Ying Lam
       谷德昭 Vincent Kok
       陈辉虹 Fai-hung Chan
       李健仁 Kin-Yan Lee
       宣萱 Jessica Hester Hsuan
       温翠苹 Tsui Ping Wen
       曾健明 Kin-Ming Tsang
       何英伟 Ying-Wai Ho
       刘小芸 Xiaoyun Liu
       平田广明 Hiroaki Hirata
       王伟梁 Wai-Leung Wong
       黎彼得 Peter Lai
       黄凤琼 Fung-King Wong
       贾天怡 Tin Yi Ku
       朱铁和 Tiet Wo Chu
       姜皓文 Philip Keung Ho-Man
       陈家碧 Kar-Bik Chan
       林威 Wai Lam
       李家声 Dickson Lee Kar-Sing
       刘锡贤 Shek Yin Lau

◎标  签 周星驰 | 喜剧 | 搞笑 | 经典 | 香港 | 香港电影 | 唐伯虎点秋香 | 巩俐

◎简  介

  唐伯虎(周星驰 饰)身为江南四大才子之首,却有道不尽的心酸。宁王想唐伯虎帮忙图谋作反,唐伯虎只好用内功改变脉象,令众人都相信他命不久矣。母亲埋怨他不应该把功夫暴露,因为他们家族一直被当年的仇人追杀。唐伯虎在与朋友出游时,遇到了貌若天仙的秋香并对她一见钟情,决心要到华府当家丁以追求秋香,唐伯虎被取名华安。期间华太师遇到了宁王上门刁难,幸好有唐伯虎出面相助,并暴露了自己是唐伯虎的身份。秋香才知道华安是自己欣赏的唐伯虎。华夫人跟唐家有怨,因此二人便开始斗法。怎料宁王跟夺面书生再次上门,华夫人不是对手,幸得唐伯虎出手,华夫人也答应把秋香许配给唐伯虎。
Video
ID                                       : 1
Format                                   : AVC
Format/Info                              : Advanced Video Codec
Format profile                           :
Format settings                          : CABAC / 4 Ref Frames
Format settings, CABAC                   : Yes
Format settings, Reference frames        : 4 frames
Codec ID                                 : V_MPEG4/ISO/AVC
Duration                                 : 1 h 42 min
Bit rate                                 : 14.8 Mb/s
Width                                    : 1 920 pixels
Height                                   : 1 080 pixels
Display aspect ratio                     : 16:9
Frame rate mode                          : Constant
Frame rate                               : 24.000 FPS
Color space                              : YUV
Chroma subsampling                       : 4:2:0
Bit depth                                : 8 bits
Scan type                                : Progressive
Bits/(Pixel*Frame)                       : 0.297
Stream size                              : 10.6 GiB (96%)
Writing library                          : x264 core 163 r3059+61M 6e67fcb devel [(8 & 10) X86_64]
Encoding settings                        : cabac=1 / ref=4 / deblock=1:-3:-3 / analyse=0x3:0x133 / me=umh / subme=10 / psy=1 / fade_compensate=0.00 / psy_rd=1.00:0.00 / mixed_ref=1 / me_range=32 / chroma_me=1 / trellis=2 / 8x8dct=1 / cqm=0 / deadzone=21,11 / fast_pskip=0 / chroma_qp_offset=-2 / threads=12 / lookahead_threads=1 / sliced_threads=0 / nr=0 / decimate=0 / interlaced=0 / bluray_compat=0 / constrained_intra=0 / fgo=0 / bframes=6 / b_pyramid=2 / b_adapt=2 / b_bias=0 / direct=3 / weightb=1 / open_gop=0 / weightp=2 / keyint=250 / keyint_min=24 / scenecut=40 / intra_refresh=0 / rc_lookahead=60 / rc=crf / mbtree=0 / crf=20.4000 / qcomp=0.60 / qpmin=0:0:0 / qpmax=69:69:69 / qpstep=4 / vbv_maxrate=62500 / vbv_bufsize=78125 / crf_max=0.0 / nal_hrd=none / filler=0 / ip_ratio=1.30 / pb_ratio=1.20 / aq=3:0.65 / aq-sensitivity=10.00 / aq-factor=1.00:1.00:1.00 / aq2=0 / aq3=0
Language                                 : Chinese
Default                                  : Yes
Forced                                   : No
Color range                              : Limited
Color primaries                          : BT.709
Matrix coefficients                      : BT.709

Audio
ID                                       : 2
Format                                   : AC-3
Format/Info                              : Audio Coding 3
Commercial name                          : Dolby Digital
Codec ID                                 : A_AC3
Duration                                 : 1 h 42 min
Bit rate mode                            : Constant
Bit rate                                 : 640 kb/s
Channel(s)                               : 6 channels
Channel layout                           : L R C LFE Ls Rs
Sampling rate                            : 48.0 kHz
Frame rate                               : 31.250 FPS (1536 SPF)
Compression mode                         : Lossy
Stream size                              : 468 MiB (4%)
Title                                    : Cantonese / Original
Language                                 : Chinese
Service kind                             : Complete Main
Default                                  : Yes
Forced                                   : No

Text #1
ID                                       : 3
Format                                   : UTF-8
Codec ID                                 : S_TEXT/UTF8
Codec ID/Info                            : UTF-8 Plain Text
Duration                                 : 1 h 38 min
Bit rate                                 : 69 b/s
Count of elements                        : 1661
Stream size                              : 50.0 KiB (0%)
Language                                 : English
Default                                  : Yes
Forced                                   : No

Text #2
ID                                       : 4
Format                                   : UTF-8
Codec ID                                 : S_TEXT/UTF8
Codec ID/Info                            : UTF-8 Plain Text
Duration                                 : 1 h 40 min
Bit rate                                 : 94 b/s
Count of elements                        : 1707
Stream size                              : 69.0 KiB (0%)
Language                                 : Vietnamese
Default                                  : No
Forced                                   : No

Menu
00:00:00.000                             : Chapter 01
00:07:28.167                             : Chapter 02
00:18:01.375                             : Chapter 03
00:25:51.958                             : Chapter 04
00:33:43.833                             : Chapter 05
00:42:01.375                             : Chapter 06
00:51:41.000                             : Chapter 07
01:00:20.917                             : Chapter 08
01:07:39.250                             : Chapter 09
01:15:53.042                             : Chapter 10
01:23:30.958                             : Chapter 11
01:31:45.333                             : Chapter 12

41f2cb5b6a5c1ffbe3906963346077e9.png

[/url]a3d04ad6e71d3fb5049fd8b23826a5fd.png

[/url]cc2230c3644548a7bffbb7a541436d66.png

[/url]



                                                                                                                                                                                                        
                                                                                                                                                                                                                                                                                                                                                                                                                                                                                                                                                                                                                                                                                                                                                                                                                                                        
e238e34be784869df74ddadb680c0b9e.torrent (55.69 KB, 下载次数: 0)

回复

使用道具 举报

小黑屋|西西论坛

本网站所有资源来自网络,如无意中侵犯了您的权益,请发邮件至 [email protected],立即清除相关链接

GMT+8, 2021-6-15 02:58 , Processed in 0.065655 second(s), 17 queries .

Powered by Discuz! X3.2

© 2001-2013 Comsenz Inc.

快速回复 返回顶部 返回列表