西西论坛

 找回密码
 立即注册
搜索

特工追缉令/一触即发 Trigger.Point.2021.1080p.BluRay.x264.DTS-MT 6.19GB

[复制链接]
admin 发表于 6 天前 | 显示全部楼层 |阅读模式
特工追缉令/一触即发 Trigger.Point.2021.1080p.BluRay.x264.DTS-MT 6.19GB                                                                                                                                                                                                                                                                                                                                                                                                                                                                                                                                        -->
帖子完整标题:特工追缉令/一触即发 Trigger.Point.2021.1080p.BluRay.x264.DTS-MT 6.19GB



fe9fdf2f8d431ea8e038d58a587afb39.jpg

[/url]

◎译  名 特工追缉令/一触即发/触发点
◎片  名 Trigger Point
◎年  代 2021
◎产  地 加拿大
◎类  别 动作 / 惊悚
◎语  言 英语
◎上映日期 2021-10-10(美国)
◎豆瓣评分 /10 from 0 users
◎豆瓣链接 
◎片  长 82分钟
◎导  演 布拉德·特纳 Brad Turner
◎主  演 巴里·佩珀 Barry Pepper
       劳拉·范德沃特 Laura Vandervoort
       伊芙·哈洛 Eve Harlow

◎标  签 特工 | 动作 | 美国 | 风景好 | 犯罪 | 惊悚 | 美国电影 | 看过的电影

◎简  介

  A disgraced former U.S. secret agent, who suffered memory loss, is dragged back into the darkest shadows of the spy world.
Video
ID                                       : 1
Format                                   : AVC
Format/Info                              : Advanced Video Codec
Format profile                           :
Format settings                          : CABAC / 5 Ref Frames
Format settings, CABAC                   : Yes
Format settings, Reference frames        : 5 frames
Codec ID                                 : V_MPEG4/ISO/AVC
Duration                                 : 1 h 22 min
Bit rate                                 : 9 257 kb/s
Width                                    : 1 920 pixels
Height                                   : 806 pixels
Display aspect ratio                     : 2.40:1
Frame rate mode                          : Constant
Frame rate                               : 23.976 (24000/1001/189150) FPS
Color space                              : YUV
Chroma subsampling                       : 4:2:0
Bit depth                                : 8 bits
Scan type                                : Progressive
Bits/(Pixel*Frame)                       : 0.249
Stream size                              : 5.32 GiB (86%)
Writing library                          : x264 core 157 r2938 2b00a84  Mod
Encoding settings                        : cabac=1 / ref=5 / deblock=1:-3:-3 / analyse=0x3:0x133 / me=umh / subme=10 / psy=1 / psy_rd=1.05:0.00 / mixed_ref=1 / me_range=32 / chroma_me=1 / trellis=2 / 8x8dct=1 / cqm=0 / deadzone=21,11 / fast_pskip=0 / chroma_qp_offset=-2 / threads=12 / lookahead_threads=2 / sliced_threads=0 / nr=0 / decimate=0 / interlaced=0 / bluray_compat=0 / constrained_intra=0 / bframes=8 / b_pyramid=2 / b_adapt=2 / b_bias=0 / direct=3 / weightb=1 / open_gop=0 / weightp=2 / keyint=250 / keyint_min=24 / scenecut=40 / intra_refresh=0 / rc_lookahead=250 / rc=crf / mbtree=0 / crf=16.8 / qcomp=0.60 / qpmin=0 / qpmax=69 / qpstep=4 / vbv_maxrate=62500 / vbv_bufsize=78125 / crf_max=0.0 / nal_hrd=none / filler=0 / ip_ratio=1.30 / pb_ratio=1.20 / aq=3:0.80
Language                                 : English
Default                                  : Yes
Forced                                   : No
Color range                              : Limited
Color primaries                          : BT.709
Matrix coefficients                      : BT.709

Audio
ID                                       : 2
Format                                   : DTS
Format/Info                              : Digital Theater Systems
Codec ID                                 : A_DTS
Duration                                 : 1 h 22 min
Bit rate mode                            : Constant
Bit rate                                 : 1 509 kb/s
Channel(s)                               : 6 channels
Channel layout                           : C L R Ls Rs LFE
Sampling rate                            : 48.0 kHz
Frame rate                               : 93.750 FPS (512 SPF)
Bit depth                                : 24 bits
Compression mode                         : Lossy
Stream size                              : 888 MiB (14%)
Language                                 : English
Default                                  : Yes
Forced                                   : No

Text
ID                                       : 3
Format                                   : UTF-8
Codec ID                                 : S_TEXT/UTF8
Codec ID/Info                            : UTF-8 Plain Text
Duration                                 : 1 h 17 min
Bit rate                                 : 40 b/s
Count of elements                        : 909
Stream size                              : 22.8 KiB (0%)
Title                                    : SRT
Language                                 : English
Default                                  : Yes
Forced                                   : No

Menu
00:00:00.000                             : Chapter 01
00:05:52.727                             : Chapter 02
00:13:45.116                             : Chapter 03
00:20:47.037                             : Chapter 04
00:27:39.116                             : Chapter 05
00:37:21.865                             : Chapter 06
00:42:08.985                             : Chapter 07
00:47:56.165                             : Chapter 08
00:55:25.781                             : Chapter 09
01:02:33.416                             : Chapter 10
01:10:43.364                             : Chapter 11
01:18:45.346                             : Chapter 12

5f19b6ffe57f7ffb3e3b20bdbd86efd3.png

[/url]172c8bc720c9ddb0723b55b19c5489f1.png

[/url]b9e4792ca8f2883f3f8dbb3baa3a8489.png

[/url]



                                                                                                                                                                                                        
                                                                                                                                                                                                                                                                                                                                                                                                                                                                                                                                                                                                                                                                                                                                                                                                                                                        
3fb9c77a9be0544fbb7de09fe80014d1.torrent (31.58 KB, 下载次数: 0)

回复

使用道具 举报

小黑屋|西西论坛

本网站所有资源来自网络,如无意中侵犯了您的权益,请发邮件至 [email protected],立即清除相关链接

GMT+8, 2021-6-15 02:43 , Processed in 0.064296 second(s), 17 queries .

Powered by Discuz! X3.2

© 2001-2013 Comsenz Inc.

快速回复 返回顶部 返回列表