西西论坛

 找回密码
 立即注册
搜索

赌棍/赌徒 The.Gambler.1974.1080p.BluRay.x264.DTS-FGT 10.08GB

[复制链接]
admin 发表于 6 天前 | 显示全部楼层 |阅读模式
赌棍/赌徒 The.Gambler.1974.1080p.BluRay.x264.DTS-FGT 10.08GB                                                                                                                                                                                                                                                                                                                                                                                                                                                                                                                                        -->
帖子完整标题:赌棍/赌徒 The.Gambler.1974.1080p.BluRay.x264.DTS-FGT 10.08GB



5ca0477ed8b4bb09a9e226cc2155f1c7.jpg

[/url]

◎译  名 赌棍/赌徒
◎片  名 The Gambler
◎年  代 1974
◎产  地 美国
◎类  别 剧情 / 犯罪
◎语  言 英语
◎上映日期 1974-10
◎豆瓣评分 /10 from 0 users
◎豆瓣链接 
◎片  长 111 分钟
◎导  演 卡雷尔·赖兹 Karel Reisz
◎编  剧 詹姆斯·托贝克 James Toback
◎主  演 詹姆斯·肯恩 James Caan
       保罗·索维诺 Paul Sorvino
       劳伦·赫顿 Lauren Hutton
       Leon Pinkney
       格雷戈瑞·罗扎基斯 Gregory Rozakis
       Raymond Serra
       里克·曼奇尼。 Ric Mancini
       Dick Schaap
       弗兰克·西维罗 Frank Sivero
       维克·泰拜克 Vic Tayback
       比阿特丽斯·温德 Beatrice Winde
       Baron Wilson
       Joel Wolfe
       菲利普·斯特林 Philip Sterling
       Ed Kovens
       史蒂文·基茨 Steven Keats
       劳伦斯·希尔顿-雅各布斯 Lawrence Hilton-Jacobs
       詹姆斯·伍兹 James Woods
       斯图尔特·马戈林 Stuart Margolin
       艾伦·瑞奇 Allan Rich
       波特·杨 Burt Young
       莫里斯·卡诺夫斯基 Morris Carnovsky
       M·埃梅特·沃尔什 M. Emmet Walsh
       约瑟夫·阿特尔斯 Joseph Attles
       卡明·卡里迪 Carmine Caridi
       苏利伯维尔 Sully Boyar
       杰奎琳·布鲁克斯 Jacqueline Brookes
       斯塔尔勒塔·杜波利斯 Starletta DuPois
       理查德·弗让吉 Richard Foronjy
       安东尼奥·法加斯 Antonio Fargas
       Chick Hearn

◎标  签 KarelReisz | 美国 | 剧情 | 美国电影 | 1974 | 电影 | karel_reisz | Karel_Reisz

◎简  介

  Alex Freed is a literature professor. He has the gambling vice. When he has lost all his money, he borrows from his girlfriend, then his mother and finally some bad guys that chase his. Despite of all this he cannot stop gambling.
Video
ID                                       : 1
Format                                   : AVC
Format/Info                              : Advanced Video Codec
Format profile                           :
Format settings                          : CABAC / 4 Ref Frames
Format settings, CABAC                   : Yes
Format settings, Reference frames        : 4 frames
Codec ID                                 : V_MPEG4/ISO/AVC
Duration                                 : 1 h 50 min
Bit rate                                 : 11.5 Mb/s
Width                                    : 1 916 pixels
Height                                   : 1 078 pixels
Display aspect ratio                     : 16:9
Original display aspect ratio            : 16:9
Frame rate mode                          : Constant
Frame rate                               : 23.976 (24000/1001/189150) FPS
Color space                              : YUV
Chroma subsampling                       : 4:2:0
Bit depth                                : 8 bits
Scan type                                : Progressive
Bits/(Pixel*Frame)                       : 0.232
Stream size                              : 8.91 GiB (88%)
Writing library                          : x264 core 148 r2795M aaa9aa8
Encoding settings                        : cabac=1 / ref=4 / deblock=1:-2:-2 / analyse=0x3:0x113 / me=umh / subme=9 / psy=1 / psy_rd=1.00:0.15 / mixed_ref=1 / me_range=16 / chroma_me=1 / trellis=2 / 8x8dct=1 / cqm=0 / deadzone=21,11 / fast_pskip=1 / chroma_qp_offset=-3 / threads=24 / lookahead_threads=3 / sliced_threads=0 / nr=0 / decimate=1 / interlaced=0 / bluray_compat=0 / constrained_intra=0 / bframes=3 / b_pyramid=2 / b_adapt=1 / b_bias=0 / direct=3 / weightb=1 / open_gop=0 / weightp=2 / keyint=250 / keyint_min=25 / scenecut=40 / intra_refresh=0 / rc_lookahead=50 / rc=2pass / mbtree=1 / bitrate=11500 / ratetol=1.0 / qcomp=0.60 / qpmin=0 / qpmax=69 / qpstep=4 / cplxblur=20.0 / qblur=0.5 / vbv_maxrate=31250 / vbv_bufsize=31250 / nal_hrd=none / filler=0 / ip_ratio=1.40 / aq=1:1.00
Language                                 : English
Default                                  : Yes
Forced                                   : No

Audio
ID                                       : 2
Format                                   : DTS
Format/Info                              : Digital Theater Systems
Codec ID                                 : A_DTS
Duration                                 : 1 h 50 min
Bit rate mode                            : Constant
Bit rate                                 : 1 509 kb/s
Channel(s)                               : 2 channels
Channel layout                           : L R
Sampling rate                            : 48.0 kHz
Frame rate                               : 93.750 FPS (512 SPF)
Bit depth                                : 16 bits
Compression mode                         : Lossy
Stream size                              : 1.17 GiB (12%)
Language                                 : English
Default                                  : Yes
Forced                                   : No

Text
ID                                       : 3
Format                                   : UTF-8
Codec ID                                 : S_TEXT/UTF8
Codec ID/Info                            : UTF-8 Plain Text
Duration                                 : 1 h 47 min
Bit rate                                 : 69 b/s
Count of elements                        : 1201
Stream size                              : 55.1 KiB (0%)
Language                                 : English
Default                                  : Yes
Forced                                   : No

Menu
00:00:00.000                             : Down Forty-Four Dimes
00:08:09.446                             : The Certainties of Dostoevsky
00:16:04.045                             : A Ride With Carmine
00:22:49.117                             : Toasting Killers and Kings
00:30:39.962                             : Cash Withdrawals
00:42:36.052                             : Hot as a Pistol
00:51:18.157                             : Blessed
01:01:52.416                             : \"I Like the Threat of Losing.\"
01:11:03.175                             : In the Hole Again
01:20:04.674                             : One
01:27:09.849                             : No More Than Seven
01:39:58.450                             : Getting Into Something
01:48:44.475                             : End Credits

2a5d1b6f26afacd4f3388c570a90502b.png

[/url]878afc814cd1c911d1aa575ae45ca95b.png

[/url]



                                                                                                                                                                                                        
                                                                                                                                                                                                                                                                                                                                                                                                                                                                                                                                                                                                                                                                                                                                                                                                                                                        
632098ae10fa31473ccf37074cf32ccf.torrent (51.01 KB, 下载次数: 0)

回复

使用道具 举报

小黑屋|西西论坛

本网站所有资源来自网络,如无意中侵犯了您的权益,请发邮件至 [email protected],立即清除相关链接

GMT+8, 2021-6-15 03:10 , Processed in 0.073852 second(s), 17 queries .

Powered by Discuz! X3.2

© 2001-2013 Comsenz Inc.

快速回复 返回顶部 返回列表