西西论坛

 找回密码
 立即注册
搜索

发型师 The.Stylist.2020.1080p.BluRay.x264.DTS-HD.MA.5.1-FGT 10.83GB

[复制链接]
admin 发表于 6 天前 | 显示全部楼层 |阅读模式
发型师 The.Stylist.2020.1080p.BluRay.x264.DTS-HD.MA.5.1-FGT 10.83GB                                                                                                                                                                                                                                                                                                                                                                                                                                                                                                                                        -->
帖子完整标题:发型师 The.Stylist.2020.1080p.BluRay.x264.DTS-HD.MA.5.1-FGT 10.83GB



e071585c1c7b569e9b77dacb95153f23.jpg

[/url]

◎译  名 发型师
◎片  名 The Stylist
◎年  代 2020
◎产  地 美国
◎类  别 剧情 / 恐怖
◎语  言 英语
◎上映日期 2020-09-26(Fantastic Fest) / 2021-03-01(美国)
◎豆瓣评分 5.5/10 from 204 users
◎豆瓣链接 
◎片  长 105分钟
◎导  演 吉尔·格瓦吉兹安 Jill Gevargizian
◎编  剧 吉尔·格瓦吉兹安 Jill Gevargizian / 艾瑞克·黑文斯 Eric Havens / Eric Stolze
◎主  演 布瑞亚·格兰特 Brea Grant
       娜嘉拉·汤森德 Najarra Townsend
       贝蒂·黎 Bety Le
       珍妮弗·西沃德 Jennifer Seward
       戴维斯·德洛克 Davis DeRock
       劳拉·柯克 Laura Kirk
       金伯利·伊格拉 Kimberly Igla
       米莉·米兰 Millie Milan
       莎拉·麦奎尔 Sarah McGuire

◎标  签 恐怖 | 美国 | 惊悚 | 犯罪 | 剧情 | 美国电影 | 2020 | 2021

◎简  介

  每个人都梦想成为另一个人……但对Claire(娜亚拉唐珊德Najarra Townsend 饰)来说,这个梦想从痴迷变成一场恶梦。白天是发型师,晚上是连环杀手兼头皮收藏家。当常客Olivia(布瑞亚格兰特BreaGran t饰)聘请Claire担任她婚礼当天的发型师,寂寞的Claire的生活开始陷入混乱。痴迷于Olivia看似完美无缺的生活,Claire誓言要金盆洗手,改邪归正。却发现压抑自己的欲望说起来容易,做起来可没那么简单……。
Video
ID                                       : 1
Format                                   : AVC
Format/Info                              : Advanced Video Codec
Format profile                           :
Format settings                          : CABAC / 4 Ref Frames
Format settings, CABAC                   : Yes
Format settings, Reference frames        : 4 frames
Codec ID                                 : V_MPEG4/ISO/AVC
Duration                                 : 1 h 44 min
Bit rate                                 : 11.5 Mb/s
Width                                    : 1 920 pixels
Height                                   : 804 pixels
Display aspect ratio                     : 2.40:1
Frame rate mode                          : Constant
Frame rate                               : 23.976 (24000/1001/189150) FPS
Color space                              : YUV
Chroma subsampling                       : 4:2:0
Bit depth                                : 8 bits
Scan type                                : Progressive
Bits/(Pixel*Frame)                       : 0.311
Stream size                              : 8.38 GiB (77%)
Writing library                          : x264 core 148 r2748 97eaef2
Encoding settings                        : cabac=1 / ref=4 / deblock=1:-2:-2 / analyse=0x3:0x113 / me=umh / subme=9 / psy=1 / psy_rd=1.00:0.15 / mixed_ref=1 / me_range=16 / chroma_me=1 / trellis=2 / 8x8dct=1 / cqm=0 / deadzone=21,11 / fast_pskip=1 / chroma_qp_offset=-3 / threads=72 / lookahead_threads=3 / sliced_threads=0 / nr=0 / decimate=1 / interlaced=0 / bluray_compat=0 / constrained_intra=0 / bframes=3 / b_pyramid=2 / b_adapt=1 / b_bias=0 / direct=3 / weightb=1 / open_gop=0 / weightp=2 / keyint=250 / keyint_min=25 / scenecut=40 / intra_refresh=0 / rc_lookahead=50 / rc=2pass / mbtree=1 / bitrate=11500 / ratetol=1.0 / qcomp=0.60 / qpmin=0 / qpmax=69 / qpstep=4 / cplxblur=20.0 / qblur=0.5 / vbv_maxrate=31250 / vbv_bufsize=31250 / nal_hrd=none / filler=0 / ip_ratio=1.40 / aq=1:1.00
Default                                  : Yes
Forced                                   : No

Audio
ID                                       : 2
Format                                   : DTS XLL
Format/Info                              : Digital Theater Systems
Commercial name                          : DTS-HD Master Audio
Codec ID                                 : A_DTS
Duration                                 : 1 h 44 min
Bit rate mode                            : Variable
Bit rate                                 : 3 351 kb/s
Channel(s)                               : 6 channels
Channel layout                           : C L R Ls Rs LFE
Sampling rate                            : 48.0 kHz
Frame rate                               : 93.750 FPS (512 SPF)
Bit depth                                : 24 bits
Compression mode                         : Lossless
Stream size                              : 2.44 GiB (23%)
Title                                    : DTS-HD MA 5.1
Language                                 : English
Default                                  : Yes
Forced                                   : No

Text #1
ID                                       : 3
Format                                   : UTF-8
Codec ID                                 : S_TEXT/UTF8
Codec ID/Info                            : UTF-8 Plain Text
Duration                                 : 1 h 40 min
Bit rate                                 : 26 b/s
Count of elements                        : 711
Stream size                              : 19.8 KiB (0%)
Title                                    : SRT
Language                                 : English
Default                                  : Yes
Forced                                   : No

Text #2
ID                                       : 4
Format                                   : PGS
Muxing mode                              : zlib
Codec ID                                 : S_HDMV/PGS
Codec ID/Info                            : Picture based subtitle format used on BDs/HD-DVDs
Duration                                 : 1 h 41 min
Bit rate                                 : 15.6 kb/s
Count of elements                        : 1586
Stream size                              : 11.3 MiB (0%)
Title                                    : SDH
Language                                 : English
Default                                  : No
Forced                                   : No

Menu
00:00:00.000                             : Chapter 01
00:07:41.002                             : Chapter 02
00:16:40.708                             : Chapter 03
00:27:19.471                             : Chapter 04
00:36:04.371                             : Chapter 05
00:44:05.935                             : Chapter 06
00:53:41.260                             : Chapter 07
01:01:03.451                             : Chapter 08
01:11:06.512                             : Chapter 09
01:19:15.709                             : Chapter 10
01:27:26.616                             : Chapter 11
01:35:39.734                             : Chapter 12
01:41:48.769                             : Chapter 13

6cde3e2c62874fc277e268763c751e38.png

[/url]e41160eff34845046906a48cb29a6eff.png

[/url]1fe57eb54397540f23d85d481186ea92.png

[/url]



                                                                                                                                                                                                        
                                                                                                                                                                                                                                                                                                                                                                                                                                                                                                                                                                                                                                                                                                                                                                                                                                                        
c9c330007a27e3f5e749cfb8a8ace1ab.torrent (54.8 KB, 下载次数: 0)

回复

使用道具 举报

小黑屋|西西论坛

本网站所有资源来自网络,如无意中侵犯了您的权益,请发邮件至 [email protected],立即清除相关链接

GMT+8, 2021-6-15 01:34 , Processed in 0.063136 second(s), 17 queries .

Powered by Discuz! X3.2

© 2001-2013 Comsenz Inc.

快速回复 返回顶部 返回列表