西西论坛

 找回密码
 立即注册
搜索

吉它武士/六弦琴武士 Six-String.Samurai.1998.1080p.BluRay.x264.DD5.1-HANDJOB 7.50 ...

[复制链接]
admin 发表于 6 天前 | 显示全部楼层 |阅读模式
吉它武士/六弦琴武士 Six-String.Samurai.1998.1080p.BluRay.x264.DD5.1-HANDJOB 7.50GB                                                                                                                                                                                                                                                                                                                                                                                                                                                                                                                                        -->
帖子完整标题:吉它武士/六弦琴武士 Six-String.Samurai.1998.1080p.BluRay.x264.DD5.1-HANDJOB 7.50GB



9d2357fccf3814bab2c18141c10c17d1.jpg

[/url]

◎译  名 吉它武士/六弦琴武士
◎片  名 Six-String Samurai
◎年  代 1998
◎产  地 美国
◎类  别 喜剧 / 动作 / 冒险
◎语  言 英语
◎上映日期 1998-09-18(美国)
◎豆瓣评分 7.3/10 from 166 users
◎豆瓣链接 
◎片  长 91分钟
◎导  演 兰斯·蒙希亚 Lance Mungia
◎编  剧 杰弗里·福尔肯 Jeffrey Falcon / 兰斯·蒙希亚 Lance Mungia
◎主  演 杰弗里·福尔肯 Jeffrey Falcon
       兰斯·蒙希亚 Lance Mungia

◎标  签 CULT | 美国 | 荒诞 | 摇滚 | Cult | 美国电影 | 公路片 | 公路

◎简  介

  In the post-apocalyptic world of 1960s Nevada, a rock 'n' roll samurai on his way to Lost Vegas takes a young orphan boy under his protection as Death and his metalhead Horsemen chase after them.
Video
ID                                       : 1
Format                                   : AVC
Format/Info                              : Advanced Video Codec
Format profile                           :
Format settings                          : CABAC / 4 Ref Frames
Format settings, CABAC                   : Yes
Format settings, Reference frames        : 4 frames
Codec ID                                 : V_MPEG4/ISO/AVC
Duration                                 : 1 h 30 min
Bit rate                                 : 11.0 Mb/s
Width                                    : 1 920 pixels
Height                                   : 1 036 pixels
Display aspect ratio                     : 1.85:1
Frame rate mode                          : Constant
Frame rate                               : 23.976 (24000/1001/189150) FPS
Color space                              : YUV
Chroma subsampling                       : 4:2:0
Bit depth                                : 8 bits
Scan type                                : Progressive
Bits/(Pixel*Frame)                       : 0.231
Stream size                              : 6.98 GiB (93%)
Writing library                          : x264 core 157 r2935 545de2f
Encoding settings                        : cabac=1 / ref=4 / deblock=1:-3:-3 / analyse=0x3:0x133 / me=umh / subme=11 / psy=1 / psy_rd=1.00:0.00 / mixed_ref=1 / me_range=32 / chroma_me=1 / trellis=2 / 8x8dct=1 / cqm=0 / deadzone=21,11 / fast_pskip=0 / chroma_qp_offset=-2 / threads=18 / lookahead_threads=3 / sliced_threads=0 / nr=0 / decimate=0 / interlaced=0 / bluray_compat=0 / constrained_intra=0 / bframes=8 / b_pyramid=2 / b_adapt=2 / b_bias=0 / direct=3 / weightb=1 / open_gop=0 / weightp=2 / keyint=240 / keyint_min=24 / scenecut=40 / intra_refresh=0 / rc_lookahead=60 / rc=crf / mbtree=0 / crf=21.8 / qcomp=0.60 / qpmin=0 / qpmax=69 / qpstep=4 / vbv_maxrate=62500 / vbv_bufsize=78125 / crf_max=0.0 / nal_hrd=none / filler=0 / ip_ratio=1.40 / pb_ratio=1.30 / aq=3:0.90
Default                                  : Yes
Forced                                   : No
Color range                              : Limited
Color primaries                          : BT.709
Transfer characteristics                 : BT.709
Matrix coefficients                      : BT.709

Audio #1
ID                                       : 2
Format                                   : AC-3
Format/Info                              : Audio Coding 3
Commercial name                          : Dolby Digital
Codec ID                                 : A_AC3
Duration                                 : 1 h 30 min
Bit rate mode                            : Constant
Bit rate                                 : 640 kb/s
Channel(s)                               : 6 channels
Channel layout                           : L R C LFE Ls Rs
Sampling rate                            : 48.0 kHz
Frame rate                               : 31.250 FPS (1536 SPF)
Compression mode                         : Lossy
Stream size                              : 416 MiB (5%)
Language                                 : English
Service kind                             : Complete Main
Default                                  : Yes
Forced                                   : No

Audio #2
ID                                       : 3
Format                                   : AAC LC
Format/Info                              : Advanced Audio Codec Low Complexity
Codec ID                                 : A_AAC-2
Duration                                 : 1 h 30 min
Bit rate                                 : 89.2 kb/s
Channel(s)                               : 2 channels
Channel layout                           : L R
Sampling rate                            : 48.0 kHz
Frame rate                               : 46.875 FPS (1024 SPF)
Compression mode                         : Lossy
Stream size                              : 58.0 MiB (1%)
Title                                    : Commentary by director Lance Mungia and cinematographer Kristian Bernier
Language                                 : English
Default                                  : No
Forced                                   : No

Audio #3
ID                                       : 4
Format                                   : AAC LC
Format/Info                              : Advanced Audio Codec Low Complexity
Codec ID                                 : A_AAC-2
Duration                                 : 1 h 30 min
Bit rate                                 : 93.2 kb/s
Channel(s)                               : 2 channels
Channel layout                           : L R
Sampling rate                            : 48.0 kHz
Frame rate                               : 46.875 FPS (1024 SPF)
Compression mode                         : Lossy
Stream size                              : 60.6 MiB (1%)
Title                                    : Commentary by director Lance Mungia
Language                                 : English
Default                                  : No
Forced                                   : No

Text #1
ID                                       : 5
Format                                   : UTF-8
Codec ID                                 : S_TEXT/UTF8
Codec ID/Info                            : UTF-8 Plain Text
Duration                                 : 1 h 30 min
Bit rate                                 : 19 b/s
Count of elements                        : 504
Stream size                              : 13.1 KiB (0%)
Language                                 : English
Default                                  : No
Forced                                   : No

Text #2
ID                                       : 6
Format                                   : UTF-8
Codec ID                                 : S_TEXT/UTF8
Codec ID/Info                            : UTF-8 Plain Text
Duration                                 : 1 h 30 min
Bit rate                                 : 24 b/s
Count of elements                        : 666
Stream size                              : 16.3 KiB (0%)
Title                                    : SDH
Language                                 : English
Default                                  : No
Forced                                   : No

Menu
00:00:00.000                             : The United States of Russia
00:08:42.521                             : Rumble at the Bowling Alley
00:17:03.104                             : Entering Nevada Badlands
00:22:15.208                             : Meet the Cleavers
00:27:03.496                             : Cometh the Cosmonauts
00:30:05.303                             : A Boy and His Bike
00:35:52.107                             : The Little Town of Fallout
00:44:59.070                             : The Dune Sea
00:51:30.670                             : Death Carries a Pale Guitar
00:57:42.416                             : The Windmill People
01:04:36.955                             : The Russian Army
01:13:14.931                             : Slouching Towards Vegas
01:16:32.086                             : Dueling With Death
01:24:34.151                             : A New Beginning
01:26:46.492                             : End Credits

986a208dbe6c45e7bd0258db8cec14f5.png

[/url]55fa080d103597337461e624498dfe7a.png

[/url]9f58f62537b14a4c65963a4fe9b2fb72.png

[/url]



                                                                                                                                                                                                        
                                                                                                                                                                                                                                                                                                                                                                                                                                                                                                                                                                                                                                                                                                                                                                                                                                                        
cefa8a90db56c904cf364534952aa9c5.torrent (38.16 KB, 下载次数: 0)

回复

使用道具 举报

小黑屋|西西论坛

本网站所有资源来自网络,如无意中侵犯了您的权益,请发邮件至 [email protected],立即清除相关链接

GMT+8, 2021-6-15 02:23 , Processed in 0.070040 second(s), 17 queries .

Powered by Discuz! X3.2

© 2001-2013 Comsenz Inc.

快速回复 返回顶部 返回列表