西西论坛

 找回密码
 立即注册
搜索

海景阳台/爱情观 A.View.of.Love.2010.FRENCH.1080p.BluRay.x264.DTS-EA 11.69GB ... ...

[复制链接]
admin 发表于 6 天前 | 显示全部楼层 |阅读模式
海景阳台/爱情观 A.View.of.Love.2010.FRENCH.1080p.BluRay.x264.DTS-EA 11.69GB                                                                                                                                                                                                                                                                                                                                                                                                                                                                                                                                        -->
帖子完整标题:海景阳台/爱情观 A.View.of.Love.2010.FRENCH.1080p.BluRay.x264.DTS-EA 11.69GB



e8519d04c364b96345b807f2e96bac28.jpg

[/url]

◎译  名 海景阳台/爱情观
◎片  名 Un balcon sur la mer
◎年  代 2010
◎产  地 法国
◎类  别 剧情 / 爱情 / 惊悚
◎语  言 法语
◎上映日期 2010-12-15(法国)
◎豆瓣评分 6.8/10 from 136 users
◎豆瓣链接 
◎片  长 107分钟
◎导  演 妮可·加西亚 Nicole Garcia
◎编  剧 雅克·菲耶斯基 Jacques Fieschi
◎主  演 让·杜雅尔丹 Jean Dujardin
       克劳迪娅·卡汀娜 Claudia Cardinale
       玛丽-乔西·克罗兹 Marie-Josée Croze
       桑德琳娜·基贝兰 Sandrine Kiberlain

◎标  签 法国 | 法国电影 | 情感 | 法语 | 爱情 | 愛情 | 2010 | 女性

◎简  介

  此片具有法语影片的一贯特色就是 讲故事,惊险,还不忘记浪漫。
  
  marc是个成功德地产商,一天他到一个旅店去见一个约好去看一个在乡下的老房子的女人,几个小时后,他突然感到他应该认识这个女子,她应该是Cathy,一个在他年轻时住在阿尔及利亚的奥兰曾经爱过的女人,Marc连忙赶到那个旅馆,并和她共度了一个晚上,她没有承认她认识他。之后等他再去找她时,她消失了。Marc的母亲告诉Marc,Cathy 从来没理开过阿尔及利亚,而且她已经早死了,是法国殖民地独立之前和她的父亲一同被炸死的。Marc 开始了一步步调查。。。。。。。
Video
ID                                       : 1
Format                                   : AVC
Format/Info                              : Advanced Video Codec
Format profile                           :
Format settings                          : CABAC / 5 Ref Frames
Format settings, CABAC                   : Yes
Format settings, Reference frames        : 5 frames
Codec ID                                 : V_MPEG4/ISO/AVC
Duration                                 : 1 h 47 min
Bit rate                                 : 14.1 Mb/s
Width                                    : 1 920 pixels
Height                                   : 820 pixels
Display aspect ratio                     : 2.35:1
Frame rate mode                          : Constant
Frame rate                               : 24.000 FPS
Color space                              : YUV
Chroma subsampling                       : 4:2:0
Bit depth                                : 8 bits
Scan type                                : Progressive
Bits/(Pixel*Frame)                       : 0.373
Stream size                              : 10.6 GiB (90%)
Writing library                          : x264 core 129 r2230 1cffe9f
Encoding settings                        : cabac=1 / ref=5 / deblock=1:-3:-3 / analyse=0x3:0x113 / me=umh / subme=11 / psy=1 / psy_rd=1.10:0.00 / mixed_ref=1 / me_range=32 / chroma_me=1 / trellis=2 / 8x8dct=1 / cqm=0 / deadzone=21,11 / fast_pskip=0 / chroma_qp_offset=-2 / threads=12 / lookahead_threads=2 / sliced_threads=0 / nr=0 / decimate=0 / interlaced=0 / bluray_compat=0 / constrained_intra=0 / bframes=12 / b_pyramid=2 / b_adapt=2 / b_bias=0 / direct=3 / weightb=1 / open_gop=0 / weightp=2 / keyint=230 / keyint_min=23 / scenecut=40 / intra_refresh=0 / rc=2pass / mbtree=0 / bitrate=14110 / ratetol=1.0 / qcomp=0.75 / qpmin=4 / qpmax=69 / qpstep=4 / cplxblur=20.0 / qblur=0.5 / ip_ratio=1.40 / pb_ratio=1.30 / aq=1:0.75
Language                                 : French
Default                                  : Yes
Forced                                   : No
Color range                              : Limited
Color primaries                          : BT.709
Transfer characteristics                 : BT.709
Matrix coefficients                      : BT.709

Audio
ID                                       : 2
Format                                   : DTS
Format/Info                              : Digital Theater Systems
Codec ID                                 : A_DTS
Duration                                 : 1 h 47 min
Bit rate mode                            : Constant
Bit rate                                 : 1 509 kb/s
Channel(s)                               : 6 channels
Channel layout                           : C L R Ls Rs LFE
Sampling rate                            : 48.0 kHz
Frame rate                               : 93.750 FPS (512 SPF)
Bit depth                                : 24 bits
Compression mode                         : Lossy
Stream size                              : 1.13 GiB (10%)
Language                                 : French
Default                                  : Yes
Forced                                   : No

Text #1
ID                                       : 3
Format                                   : UTF-8
Codec ID                                 : S_TEXT/UTF8
Codec ID/Info                            : UTF-8 Plain Text
Duration                                 : 1 h 44 min
Bit rate                                 : 34 b/s
Count of elements                        : 1100
Stream size                              : 26.2 KiB (0%)
Title                                    : SRT
Language                                 : English
Default                                  : Yes
Forced                                   : No

Text #2
ID                                       : 4
Format                                   : VobSub
Muxing mode                              : zlib
Codec ID                                 : S_VOBSUB
Codec ID/Info                            : Picture based subtitle format used on DVDs
Duration                                 : 1 h 44 min
Bit rate                                 : 4 962 b/s
Count of elements                        : 1102
Stream size                              : 3.70 MiB (0%)
Language                                 : English
Default                                  : No
Forced                                   : No

Text #3
ID                                       : 5
Format                                   : VobSub
Muxing mode                              : zlib
Codec ID                                 : S_VOBSUB
Codec ID/Info                            : Picture based subtitle format used on DVDs
Duration                                 : 1 h 46 min
Bit rate                                 : 9 389 b/s
Count of elements                        : 1309
Stream size                              : 7.17 MiB (0%)
Language                                 : English
Default                                  : No
Forced                                   : No

Menu
00:00:00.000                             : 00:00:00.000
00:11:20.167                             : 00:11:20.167
00:17:19.917                             : 00:17:19.917
00:26:30.417                             : 00:26:30.417
00:35:13.667                             : 00:35:13.667
00:42:15.083                             : 00:42:15.083
00:52:02.833                             : 00:52:02.833
00:59:05.583                             : 00:59:05.583
01:05:54.708                             : 01:05:54.708
01:13:53.083                             : 01:13:53.083
01:24:51.292                             : 01:24:51.292
01:31:33.875                             : 01:31:33.875

2ec5415a433739571c48133a1a8a5e26.png

[/url]



                                                                                                                                                                                                        
                                                                                                                                                                                                                                                                                                                                                                                                                                                                                                                                                                                                                                                                                                                                                                                                                                                        
1a8968911497756312687ff81a7bc570.torrent (59.07 KB, 下载次数: 0)

回复

使用道具 举报

小黑屋|西西论坛

本网站所有资源来自网络,如无意中侵犯了您的权益,请发邮件至 [email protected],立即清除相关链接

GMT+8, 2021-6-15 01:28 , Processed in 0.064251 second(s), 17 queries .

Powered by Discuz! X3.2

© 2001-2013 Comsenz Inc.

快速回复 返回顶部 返回列表