西西论坛

 找回密码
 立即注册
搜索

盖世傻侠/嘻哈奇俠 Pootie.Tang.2001.1080p.BluRay.x264.DTS-FGT 7.39GB

[复制链接]
admin 发表于 6 天前 | 显示全部楼层 |阅读模式
盖世傻侠/嘻哈奇俠 Pootie.Tang.2001.1080p.BluRay.x264.DTS-FGT 7.39GB                                                                                                                                                                                                                                                                                                                                                                                                                                                                                                                                        -->
帖子完整标题:盖世傻侠/嘻哈奇俠 Pootie.Tang.2001.1080p.BluRay.x264.DTS-FGT 7.39GB



43901593528a8325e7c71d383097d558.jpg

[/url]

◎译  名 盖世傻侠/嘻哈奇俠
◎片  名 Pootie Tang
◎年  代 2001
◎产  地 美国
◎类  别 喜剧 / 动作 / 歌舞 / 冒险
◎语  言 英语
◎上映日期 2001-06-29
◎豆瓣评分 6.7/10 from 153 users
◎豆瓣链接 
◎片  长 81 分钟
◎导  演 路易·C·K Louis C.K.
◎编  剧 路易·C·K Louis C.K.
◎主  演 克里斯·洛克 Chris Rock
       兰斯·克劳瑟 Lance Crouther
       J·B·斯穆夫 J.B. Smoove
       罗伯特·沃恩 Robert Vaughn
       Robert Trumbull
       Christopher Wynkoop
       凯沙·夏普 Keesha Sharp
       乔·格拉瑟 Jon Glaser
       劳拉·奈特林格 Laura Kightlinger
       Bob Colletti
       达沃·阿特尔 Dave Attell
       雷格·E·凯蒂 Reg E. Cathey
       密西·艾莉特 Missy 'Misdemeanor' Elliott
       Jodi Michelle Pynn
       柯南·奥布莱恩 Conan O'Brien
       兰内特·瓦雷 Lanette Ware
       Keenan Shimizu
       Diandra Newlin
       安迪·里克特 Andy Richter
       詹妮佛·库里奇 Jennifer Coolidge
       旺达·塞克丝 Wanda Sykes
       克里斯汀·贝尔 Kristen Bell
       托德·巴里 Todd Barry
       大卫·克罗斯 David Cross
       马里奥·乔纳 Mario Joyner
       Andy Duppin
       Bryan Hearne
       科尔·霍金斯 Cole Hawkins
       查克·杰弗里斯 Chuck Jeffreys
       J·D·威廉姆斯 J.D. Williams
       鲍勃·科斯塔斯 Bob Costas

◎标  签 喜剧 | 美国 | 黑人 | HBO | 路易·C·K | 盖世傻侠Pootie | cult | 搞笑

◎简  介

  Pootie Tang, the musician/actor/folk hero of the ghetto, is chronicled from his early childhood to his battles against the evil Corporate America, who try to steal his magic belt and make him sell out by endorsing addictive products to his people. Pootie must learn to find himself and defeat the evil corporation for all the young black children of America, supatime.
Video
ID                                       : 1
Format                                   : AVC
Format/Info                              : Advanced Video Codec
Format profile                           :
Format settings                          : CABAC / 4 Ref Frames
Format settings, CABAC                   : Yes
Format settings, Reference frames        : 4 frames
Codec ID                                 : V_MPEG4/ISO/AVC
Duration                                 : 1 h 21 min
Bit rate                                 : 11.5 Mb/s
Width                                    : 1 920 pixels
Height                                   : 1 080 pixels
Display aspect ratio                     : 16:9
Frame rate mode                          : Constant
Frame rate                               : 23.976 (24000/1001/189150) FPS
Color space                              : YUV
Chroma subsampling                       : 4:2:0
Bit depth                                : 8 bits
Scan type                                : Progressive
Bits/(Pixel*Frame)                       : 0.231
Stream size                              : 6.53 GiB (88%)
Writing library                          : x264 core 148 r2795M aaa9aa8
Encoding settings                        : cabac=1 / ref=4 / deblock=1:-2:-2 / analyse=0x3:0x113 / me=umh / subme=9 / psy=1 / psy_rd=1.00:0.15 / mixed_ref=1 / me_range=16 / chroma_me=1 / trellis=2 / 8x8dct=1 / cqm=0 / deadzone=21,11 / fast_pskip=1 / chroma_qp_offset=-3 / threads=24 / lookahead_threads=3 / sliced_threads=0 / nr=0 / decimate=1 / interlaced=0 / bluray_compat=0 / constrained_intra=0 / bframes=3 / b_pyramid=2 / b_adapt=1 / b_bias=0 / direct=3 / weightb=1 / open_gop=0 / weightp=2 / keyint=250 / keyint_min=25 / scenecut=40 / intra_refresh=0 / rc_lookahead=50 / rc=2pass / mbtree=1 / bitrate=11500 / ratetol=1.0 / qcomp=0.60 / qpmin=0 / qpmax=69 / qpstep=4 / cplxblur=20.0 / qblur=0.5 / vbv_maxrate=31250 / vbv_bufsize=31250 / nal_hrd=none / filler=0 / ip_ratio=1.40 / aq=1:1.00
Language                                 : English
Default                                  : Yes
Forced                                   : No

Audio
ID                                       : 2
Format                                   : DTS
Format/Info                              : Digital Theater Systems
Codec ID                                 : A_DTS
Duration                                 : 1 h 21 min
Bit rate mode                            : Constant
Bit rate                                 : 1 509 kb/s
Channel(s)                               : 6 channels
Channel layout                           : C L R Ls Rs LFE
Sampling rate                            : 48.0 kHz
Frame rate                               : 93.750 FPS (512 SPF)
Bit depth                                : 16 bits
Compression mode                         : Lossy
Stream size                              : 878 MiB (12%)
Language                                 : English
Default                                  : Yes
Forced                                   : No

Text
ID                                       : 3
Format                                   : UTF-8
Codec ID                                 : S_TEXT/UTF8
Codec ID/Info                            : UTF-8 Plain Text
Duration                                 : 1 h 20 min
Bit rate                                 : 81 b/s
Count of elements                        : 1241
Stream size                              : 48.3 KiB (0%)
Language                                 : English
Default                                  : Yes
Forced                                   : No

Menu
00:00:00.000                             : Sine Your Pitty on the Runny Kine
00:08:10.115                             : Sepatown
00:13:10.623                             : Sa DaTay
00:24:31.178                             : Wadatah
00:36:59.509                             : TipiTai
00:45:59.590                             : Main Damie
00:58:35.887                             : Capatown
01:10:21.384                             : Cole Me Down on the Panny Sty

0b98be8f1b619e35e96d6508b405c47f.png

[/url]a2574fa53261fc4905e5204d4013cd3b.png

[/url]3864d89292804ff69608524d13a365a5.png

[/url]



                                                                                                                                                                                                        
                                                                                                                                                                                                                                                                                                                                                                                                                                                                                                                                                                                                                                                                                                                                                                                                                                                        
dbeb83bb2ce28b9e9efcf902a0b92d73.torrent (37.57 KB, 下载次数: 0)

回复

使用道具 举报

小黑屋|西西论坛

本网站所有资源来自网络,如无意中侵犯了您的权益,请发邮件至 [email protected],立即清除相关链接

GMT+8, 2021-6-15 02:05 , Processed in 0.063675 second(s), 17 queries .

Powered by Discuz! X3.2

© 2001-2013 Comsenz Inc.

快速回复 返回顶部 返回列表