西西论坛

 找回密码
 立即注册
搜索

电台 Radio.On.1979.1080p.BluRay.x264.DTS-FGT 9.50GB

[复制链接]
admin 发表于 6 天前 | 显示全部楼层 |阅读模式
电台 Radio.On.1979.1080p.BluRay.x264.DTS-FGT 9.50GB                                                                                                                                                                                                                                                                                                                                                                                                                                                                                                                                        -->
帖子完整标题:电台 Radio.On.1979.1080p.BluRay.x264.DTS-FGT 9.50GB



1860df4d0d5f21b756f00036742d8357.jpg

[/url]

◎译  名 电台
◎片  名 Radio On
◎年  代 1979
◎产  地 英国,西德
◎类  别 剧情 / 悬疑 / 音乐
◎语  言 英语,德语
◎上映日期 1980-04-11
◎豆瓣评分 7.0/10 from 70 users
◎豆瓣链接 
◎片  长 104 分钟
◎导  演 克里斯托弗·佩蒂特 Christopher Petit
◎编  剧 克里斯托弗·佩蒂特 Christopher Petit
◎主  演 丽萨·克鲁泽 Lisa Kreuzer
       桑迪·拉特克利夫 Sandy Ratcliff
       斯汀 Sting
       Tilly Vosburgh

◎标  签 英国 | 公路 | 公路电影 | 英国电影 | 音樂 | ChristopherPetit | Christopher_Petit | 音乐

◎简  介

  克里斯?佩提1979年创作的小众电影《电台》是英国电影史上极具鲜明个性的处女作之一,他将前卫神秘的故事与存在主义公路电影奇妙地融合在了一起,同时也让整部影片充满了对英国风景和气候的怪诞复现。
  
  维姆?文德斯的摄影助手马丁?夏非完成了精彩的黑白摄影。大卫?鲍伊、发电站乐队、莱内?洛维奇、伊安?杜利、Wreckless Eric、罗伯特?弗里普、Devo乐队为《电台》加入了精彩的新浪潮电影配乐,同时该片还展现了斯汀的早期荧幕表演。
  
  影片讲述了一个年轻的伦敦DJ(大卫?毕美斯 饰演)开车去布里斯托尔调查他兄弟的神秘死因。《电台》为观众展现了一个独特而又富有魅力,同时还带着神秘的20世纪70年代英格兰面貌。70年代的英格兰一直在社会文化变革的希望与失望之中挣扎,等待撒切尔夫人厉行革新的暴风骤雨。
Video
ID                                       : 1
Format                                   : AVC
Format/Info                              : Advanced Video Codec
Format profile                           :
Format settings                          : CABAC / 4 Ref Frames
Format settings, CABAC                   : Yes
Format settings, Reference frames        : 4 frames
Codec ID                                 : V_MPEG4/ISO/AVC
Duration                                 : 1 h 44 min
Bit rate                                 : 11.5 Mb/s
Width                                    : 1 920 pixels
Height                                   : 1 040 pixels
Display aspect ratio                     : 1.85:1
Frame rate mode                          : Constant
Frame rate                               : 24.000 FPS
Color space                              : YUV
Chroma subsampling                       : 4:2:0
Bit depth                                : 8 bits
Scan type                                : Progressive
Bits/(Pixel*Frame)                       : 0.240
Stream size                              : 8.39 GiB (88%)
Writing library                          : x264 core 148 r2795M aaa9aa8
Encoding settings                        : cabac=1 / ref=4 / deblock=1:-2:-2 / analyse=0x3:0x113 / me=umh / subme=9 / psy=1 / psy_rd=1.00:0.15 / mixed_ref=1 / me_range=16 / chroma_me=1 / trellis=2 / 8x8dct=1 / cqm=0 / deadzone=21,11 / fast_pskip=1 / chroma_qp_offset=-3 / threads=24 / lookahead_threads=3 / sliced_threads=0 / nr=0 / decimate=1 / interlaced=0 / bluray_compat=0 / constrained_intra=0 / bframes=3 / b_pyramid=2 / b_adapt=1 / b_bias=0 / direct=3 / weightb=1 / open_gop=0 / weightp=2 / keyint=250 / keyint_min=25 / scenecut=40 / intra_refresh=0 / rc_lookahead=50 / rc=2pass / mbtree=1 / bitrate=11500 / ratetol=1.0 / qcomp=0.60 / qpmin=0 / qpmax=69 / qpstep=4 / cplxblur=20.0 / qblur=0.5 / vbv_maxrate=31250 / vbv_bufsize=31250 / nal_hrd=none / filler=0 / ip_ratio=1.40 / aq=1:1.00
Language                                 : English
Default                                  : Yes
Forced                                   : No

Audio
ID                                       : 2
Format                                   : DTS
Format/Info                              : Digital Theater Systems
Codec ID                                 : A_DTS
Duration                                 : 1 h 44 min
Bit rate mode                            : Constant
Bit rate                                 : 1 509 kb/s
Channel(s)                               : 1 channel
Channel layout                           : C
Sampling rate                            : 48.0 kHz
Frame rate                               : 93.750 FPS (512 SPF)
Bit depth                                : 16 bits
Compression mode                         : Lossy
Stream size                              : 1.10 GiB (12%)
Language                                 : English
Default                                  : Yes
Forced                                   : No

Text
ID                                       : 3
Format                                   : UTF-8
Codec ID                                 : S_TEXT/UTF8
Codec ID/Info                            : UTF-8 Plain Text
Duration                                 : 1 h 40 min
Bit rate                                 : 28 b/s
Count of elements                        : 715
Stream size                              : 21.1 KiB (0%)
Language                                 : English
Default                                  : Yes
Forced                                   : No

Menu
00:00:00.000                             : Chapter 01
00:11:47.541                             : Chapter 02
00:17:02.041                             : Chapter 03
00:27:42.166                             : Chapter 04
00:33:06.875                             : Chapter 05
00:43:37.041                             : Chapter 06
00:49:28.875                             : Chapter 07
00:55:11.583                             : Chapter 08
01:03:34.958                             : Chapter 09
01:11:23.916                             : Chapter 10
01:20:19.791                             : Chapter 11
01:34:43.833                             : Chapter 12

804195096e2f40cdf7eb01dfca064fbb.png

[/url]474ed87affa5eec515f9b5f852c64edf.png

[/url]f63b40f08f6eaf976c5d2826af1362b2.png

[/url]



                                                                                                                                                                                                        
                                                                                                                                                                                                                                                                                                                                                                                                                                                                                                                                                                                                                                                                                                                                                                                                                                                        
6406435e66a24884364002f05795cc96.torrent (48.07 KB, 下载次数: 0)

回复

使用道具 举报

小黑屋|西西论坛

本网站所有资源来自网络,如无意中侵犯了您的权益,请发邮件至 [email protected],立即清除相关链接

GMT+8, 2021-6-15 02:02 , Processed in 0.062243 second(s), 17 queries .

Powered by Discuz! X3.2

© 2001-2013 Comsenz Inc.

快速回复 返回顶部 返回列表