西西论坛

 找回密码
 立即注册
搜索

[秘密访客][纯净版][BT下载][WEB-MKV/5GB][国语.中文字幕][2160P][高清无水印片源] .. ...

[复制链接]
admin 发表于 5 天前 | 显示全部楼层 |阅读模式
-->



◎译  名 Home Sweet Home
◎片  名 秘密访客
◎年  代 2021
◎产  地 中国大陆
◎类  别 悬疑 / 惊悚
◎语  言 汉语普通话
◎上映日期 2021-05-01(中国大陆)
◎IMDb评分  5.9/10 from 79 users
◎片  长 111分钟
◎导  演 陈正道 Leste Chen
◎编  剧 殳俏 Qiao Shu / 易帅婕 Shuaijie Yi
◎主  演 郭富城 Aaron Kwok
      段奕宏 Yihong Duan
      张子枫 Zifeng Zhang
      许玮甯 Hsu Wei-Ning
      荣梓杉 Zishan Rong
      王圣迪 Shengdi Wang
      吕聿来 Yulai Lü
      张柏嘉 Baijia Zhang
      孔雁 Yan Kong

◎简  介  

  ◎简  介

  校车司机于困樵(段奕宏 饰)因失职酿成了一起重大的校车车祸,困樵拼死救出了似与车祸背后真相息息相关的汪楚祺(荣梓杉 饰),校车上的其他学生无人生还。
  得知此事家境显赫的汪父(郭富城 饰)为了隐藏这个秘密,不得不把困樵藏在自己家的地下室里长达三年,却处处暗示困樵何时自首。随着访客的到来,这个原本温馨和睦的四口之家变得越来越诡异,母亲(许玮甯 饰)整日惴惴不安,姐姐(张子枫 饰)举止一反常态,家人个个心怀鬼胎,怪事频出,这个家背后不可告人的秘密似乎即将浮出水面……

◎获奖情况

  第7届豆瓣电影年度榜单  (2020)
  最值得期待的华语电影(提名)



  • Quote:

  • General
  • Unique ID                      : 249152646405439611293027992694795759924 (0xBB710DE2E7DB724FA9D6BB8DB1EF7134)
  • Complete name                  : Home Sweet Home 2021 WEB-DL 4K H265 Dolby Digital Plus with Dolby Atmos-Dave.mkv
  • Format                         : Matroska
  • Format version                 : Version 4
  • File size                      : 5.55 GiB
  • Duration                       : 1 h 49 min
  • Overall bit rate               : 7 232 kb/s
  • Encoded date                   : UTC 2021-06-08 08:20:27
  • Writing application            : mkvmerge v19.0.0 (‘Brave Captain‘) 64-bit
  • Writing library                : libebml v1.3.5 + libmatroska v1.4.8

  • Video
  • ID                             : 1
  • Format                         : HEVC
  • Format/Info                    : High Efficiency Video Coding
  • Format profile                 : @Main
  • Codec ID                       : V_MPEGH/ISO/HEVC
  • Duration                       : 1 h 49 min
  • Bit rate                       : 6 651 kb/s
  • Width                          : 3 840 pixels
  • Height                         : 1 626 pixels
  • Display aspect ratio           : 2.35:1
  • Frame rate mode                : Constant
  • Frame rate                     : 24.000 FPS
  • Color space                    : YUV
  • Chroma subsampling             : 4:2:0
  • Bit depth                      : 8 bits
  • Bits/(Pixel*Frame)             : 0.044
  • Stream size                    : 5.10 GiB (92%)
  • Writing library                : HW265_Code
  • Default                        : Yes
  • Forced                         : No
  • Color range                    : Limited
  • Color primaries                : BT.709
  • Transfer characteristics       : BT.709
  • Matrix coefficients            : BT.709

  • Audio #1
  • ID                             : 2
  • Format                         : E-AC-3 JOC
  • Format/Info                    : Enhanced AC-3 with Joint Object Coding
  • Commercial name                : Dolby Digital Plus with Dolby Atmos
  • Codec ID                       : A_EAC3
  • Duration                       : 1 h 49 min
  • Bit rate mode                  : Constant
  • Bit rate                       : 448 kb/s
  • Channel(s)                     : 6 channels
  • Channel layout                 : L R C LFE Ls Rs
  • Sampling rate                  : 48.0 kHz
  • Frame rate                     : 31.250 FPS (1536 SPF)
  • Compression mode               : Lossy
  • Stream size                    : 352 MiB (6%)
  • Language                       : Chinese
  • Service kind                   : Complete Main
  • Default                        : Yes
  • Forced                         : No
  • Complexity index               : 16
  • Number of dynamic objects      : 15
  • Bed channel count              : 1 channel
  • Bed channel configuration      : LFE

  • Audio #2
  • ID                             : 3
  • Format                         : AAC LC SBR
  • Format/Info                    : Advanced Audio Codec Low Complexity with Spectral Band Replication
  • Commercial name                : HE-AAC
  • Format settings                : NBC
  • Codec ID                       : A_AAC-5
  • Duration                       : 1 h 49 min
  • Bit rate                       : 132 kb/s
  • Channel(s)                     : 6 channels
  • Channel layout                 : C L R Ls Rs LFE
  • Sampling rate                  : 48.0 kHz
  • Frame rate                     : 23.438 FPS (2048 SPF)
  • Compression mode               : Lossy
  • Stream size                    : 103 MiB (2%)
  • Language                       : Chinese
  • Default                        : No
  • Forced                         : No
[color=#336699 !important]复制代码


108985a127ecba25ac4843d8fdeb72ef.png






                                                                                                                                                                                                        
                                                                                                                                                                                                                                                                                                                                                                                                                                                                                                                                                                                                                                                                                                                                                                                                                                                        
99f1350f6d752e1085796edd0674283f.torrent (18.79 KB, 下载次数: 0)

回复

使用道具 举报

小黑屋|西西论坛

本网站所有资源来自网络,如无意中侵犯了您的权益,请发邮件至 [email protected],立即清除相关链接

GMT+8, 2021-6-14 23:36 , Processed in 0.062290 second(s), 17 queries .

Powered by Discuz! X3.2

© 2001-2013 Comsenz Inc.

快速回复 返回顶部 返回列表