西西论坛

 找回密码
 立即注册
搜索

达琳达/绝代天后黛莉达 Dalida.2016.FRENCH.1080p.BluRay.x264.DTS-iKiW 14.23GB ... ...

[复制链接]
admin 发表于 7 天前 | 显示全部楼层 |阅读模式
达琳达/绝代天后黛莉达 Dalida.2016.FRENCH.1080p.BluRay.x264.DTS-iKiW 14.23GB                                                                                                                                                                                                                                                                                                                                                                                                                                                                                                                                        -->
帖子完整标题:达琳达/绝代天后黛莉达 Dalida.2016.FRENCH.1080p.BluRay.x264.DTS-iKiW 14.23GB



97a60b93fde02322bf9afaae347060dc.jpg

[/url]

◎译  名 达琳达/绝代天后黛莉达(台)
◎片  名 Dalida
◎年  代 2017
◎产  地 法国
◎类  别 剧情 / 音乐 / 传记
◎语  言 法语,意大利语,英语,阿拉伯语
◎上映日期 2017-01-11(法国) / 2020-11-09(中国大陆)
◎豆瓣评分 6.7/10 from 541 users
◎豆瓣链接 
◎片  长 124分钟
◎导  演 丽萨·阿祖洛斯 Lisa Azuelos
◎编  剧 丽萨·阿祖洛斯 Lisa Azuelos
◎主  演 斯维娃·阿维蒂 Sveva Alviti
       里卡多·斯卡马乔 Riccardo Scamarcio
       让-保罗·卢弗 Jean-Paul Rouve
       尼尔斯·施内德 Niels Schneider
       亚历桑德罗·博尔吉 Alessandro Borghi
       尼古拉斯·迪佛休尔 Nicolas Duvauchelle
       帕特里克·坦西 Patrick Timsit
       文森特·佩雷斯 Vincent Perez
       洛朗·巴图 Laurent Bateau
       斯特凡·冯金诺斯  Stéphane Foenkinos
       布鲁诺里奇 Bruno Ricci
       罗宾·希纳西 Roby Schinasi
       乔纳森·布迪纳 Jonathan Boudina
       Brenno Placido
       米夏埃尔·科恩 Micha?l Cohen

◎标  签 传记 | 法国 | 音乐 | 法国电影 | 2017 | 音樂 | 电影 | 剧情

◎简  介

  关于法国天后级歌手达琳达Dalida的传记片,这部电影讲述的就是Dalida的生活,里面有她跌宕一生的故事,也有法国60年代充满真诚的歌声。她活跃于乐坛30几年,掀起过欧洲的第一次歌迷狂潮现象,是唯一一位被戴高乐总统授予过共和国总统勋章的艺人,经历过无数成名路上的坎坷与艰辛。她以那首BAMBINO走向世人,又以那句“La vie m'est insupportable, pardonnez-moi.”离开世人。她就是出生在开罗,用法语、西班牙语、阿拉伯语、希伯来语、德语、意大利语不停歌唱的法国天后级歌手Dalida。
Video
ID                                       : 1
Format                                   : AVC
Format/Info                              : Advanced Video Codec
Format profile                           :
Format settings                          : CABAC / 5 Ref Frames
Format settings, CABAC                   : Yes
Format settings, Reference frames        : 5 frames
Codec ID                                 : V_MPEG4/ISO/AVC
Duration                                 : 2 h 6 min
Bit rate                                 : 14.5 Mb/s
Width                                    : 1 920 pixels
Height                                   : 800 pixels
Display aspect ratio                     : 2.40:1
Frame rate mode                          : Constant
Frame rate                               : 23.976 (24000/1001/189150) FPS
Color space                              : YUV
Chroma subsampling                       : 4:2:0
Bit depth                                : 8 bits
Scan type                                : Progressive
Bits/(Pixel*Frame)                       : 0.395
Stream size                              : 12.9 GiB (91%)
Writing library                          : x264 core 155 r2867+74 66b5600 t_mod_Custom_2 [ X86_64]
Encoding settings                        : cabac=1 / ref=5 / deblock=1:-3:-3 / analyse=0x3:0x133 / me=umh / subme=10 / psy=1 / fade_compensate=0.00 / psy_rd=1.00:0.00 / mixed_ref=1 / me_range=32 / chroma_me=1 / trellis=2 / 8x8dct=1 / cqm=0 / deadzone=21,11 / fast_pskip=0 / chroma_qp_offset=-2 / threads=24 / lookahead_threads=4 / sliced_threads=0 / nr=0 / decimate=0 / interlaced=0 / bluray_compat=0 / constrained_intra=0 / fgo=0 / bframes=8 / b_pyramid=2 / b_adapt=2 / b_bias=0 / direct=3 / weightb=1 / open_gop=0 / weightp=2 / keyint=250 / keyint_min=23 / scenecut=40 / intra_refresh=0 / rc_lookahead=60 / rc=crf / mbtree=0 / crf=17.1000 / qcomp=0.60 / qpmin=0:0:0 / qpmax=69:69:69 / qpstep=4 / vbv_maxrate=62500 / vbv_bufsize=78125 / crf_max=0.0 / nal_hrd=none / filler=0 / ip_ratio=1.30 / pb_ratio=1.20 / aq=3:0.65 / aq-sensitivity=10.00 / aq-factor=1.00:1.00:1.00 / aq2=0 / aq3=0 / zones=551,753,crf=14
Default                                  : Yes
Forced                                   : No

Audio
ID                                       : 2
Format                                   : DTS
Format/Info                              : Digital Theater Systems
Codec ID                                 : A_DTS
Duration                                 : 2 h 6 min
Bit rate mode                            : Constant
Bit rate                                 : 1 509 kb/s
Channel(s)                               : 6 channels
Channel layout                           : C L R Ls Rs LFE
Sampling rate                            : 48.0 kHz
Frame rate                               : 93.750 FPS (512 SPF)
Bit depth                                : 24 bits
Compression mode                         : Lossy
Stream size                              : 1.34 GiB (9%)
Language                                 : French
Default                                  : Yes
Forced                                   : No

Text
ID                                       : 3
Format                                   : UTF-8
Codec ID                                 : S_TEXT/UTF8
Codec ID/Info                            : UTF-8 Plain Text
Duration                                 : 1 h 59 min
Bit rate                                 : 37 b/s
Count of elements                        : 1300
Stream size                              : 32.5 KiB (0%)
Language                                 : English
Default                                  : Yes
Forced                                   : No

Menu
00:00:00.000                             : 00:00:00.000
00:07:25.195                             : 00:07:25.195
00:15:50.074                             : 00:15:50.074
00:24:23.379                             : 00:24:23.379
00:32:38.165                             : 00:32:38.165
00:42:33.050                             : 00:42:33.050
00:51:10.776                             : 00:51:10.776
01:00:37.676                             : 01:00:37.676
01:08:05.498                             : 01:08:05.498
01:17:35.317                             : 01:17:35.317
01:26:22.094                             : 01:26:22.094
01:33:20.345                             : 01:33:20.345
01:41:33.212                             : 01:41:33.212
01:50:15.609                             : 01:50:15.609
01:56:49.044                             : 01:56:49.044
02:03:17.974                             : 02:03:17.974

5b94048c5a9b39c06f5cc14231a1bf9a.png

[/url]



                                                                                                                                                                                                        
                                                                                                                                                                                                                                                                                                                                                                                                                                                                                                                                                                                                                                                                                                                                                                                                                                                        
8cf0ff7c9a102a0ea75909a665f37375.torrent (71.74 KB, 下载次数: 0)

回复

使用道具 举报

小黑屋|西西论坛

本网站所有资源来自网络,如无意中侵犯了您的权益,请发邮件至 [email protected],立即清除相关链接

GMT+8, 2021-6-15 01:33 , Processed in 0.066734 second(s), 17 queries .

Powered by Discuz! X3.2

© 2001-2013 Comsenz Inc.

快速回复 返回顶部 返回列表