西西论坛

 找回密码
 立即注册
搜索

直率症 Empowered.2018.SPANISH.1080p.BluRay.x264.DTS-HDS 9.94GB

[复制链接]
admin 发表于 7 天前 | 显示全部楼层 |阅读模式
直率症 Empowered.2018.SPANISH.1080p.BluRay.x264.DTS-HDS 9.94GB                                                                                                                                                                                                                                                                                                                                                                                                                                                                                                                                        -->
帖子完整标题:直率症 Empowered.2018.SPANISH.1080p.BluRay.x264.DTS-HDS 9.94GB



7b2cfa8c7fa0901c6d24a81b0476c731.jpg

[/url]

◎译  名 直率症/Empowered/阿娘,威!(台)
◎片  名 Sin rodeos
◎年  代 2018
◎产  地 西班牙
◎类  别 喜剧
◎语  言 西班牙语
◎上映日期 2018-03-02(西班牙)
◎豆瓣评分 6.1/10 from 300 users
◎豆瓣链接 
◎片  长 87分钟
◎导  演 圣地亚哥·塞古拉 Santiago Segura
◎编  剧 尼古拉斯·洛佩兹 Nicolás López / 圣地亚哥·塞古拉 Santiago Segura
◎主  演 玛丽维尔·贝尔杜 Maribel Verdú
       迭戈·马丁 Diego Martín
       冬妮·阿科斯塔 Toni Acosta
       Rafael Spregelburd
       Bárbara Santa Cruz
       克里斯汀娜·卡斯达尼奥 Cristina Casta?o
       Cristina Pedroche
       圣地亚哥·塞古拉 Santiago Segura
       费尔南多·吉尔 Fernando Gil

◎标  签 西班牙 | 喜剧 | 2018 | 女性 | 西班牙电影 | 剧情 | 生活 | 电影

◎简  介

  帕茲似乎已經擁有完美的生活,工作、愛人、朋友無一不缺,但仍然感覺少了什麼。她一直覺得哪裡不對勁,因此而感到沮喪受挫,不敢找人分享自己的感受。在瀕臨崩潰之際,她參加一位神祕大師阿米爾納拉揚主持的奇特療程。第一步是要她說出自己內心想的所有事情。她照做了,直言不諱、毫不留情說出內心的話,竟然讓身邊的人明白誰才是老大!有趣的旅程正要展開,這個「新帕茲」突然間再次學會了如何微笑。
Video
ID                                       : 1
Format                                   : AVC
Format/Info                              : Advanced Video Codec
Format profile                           :
Format settings                          : CABAC / 5 Ref Frames
Format settings, CABAC                   : Yes
Format settings, Reference frames        : 5 frames
Codec ID                                 : V_MPEG4/ISO/AVC
Duration                                 : 1 h 27 min
Bit rate                                 : 14.8 Mb/s
Width                                    : 1 920 pixels
Height                                   : 804 pixels
Display aspect ratio                     : 2.40:1
Frame rate mode                          : Constant
Frame rate                               : 24.000 FPS
Color space                              : YUV
Chroma subsampling                       : 4:2:0
Bit depth                                : 8 bits
Scan type                                : Progressive
Bits/(Pixel*Frame)                       : 0.400
Stream size                              : 9.01 GiB (91%)
Writing library                          : x264 core 148 r2705+45 bdacf7a 7mod [ X86_64]
Encoding settings                        : cabac=1 / ref=5 / deblock=1:-3:-3 / analyse=0x3:0x113 / me=umh / subme=11 / psy=1 / fade_compensate=0.00 / psy_rd=1.00:0.05 / mixed_ref=1 / me_range=32 / chroma_me=1 / trellis=2 / 8x8dct=1 / cqm=0 / deadzone=21,11 / fast_pskip=0 / chroma_qp_offset=-2 / threads=16 / lookahead_threads=2 / sliced_threads=0 / nr=0 / decimate=1 / interlaced=0 / bluray_compat=0 / constrained_intra=0 / fgo=0 / bframes=8 / b_pyramid=2 / b_adapt=2 / b_bias=0 / direct=3 / weightb=1 / open_gop=0 / weightp=2 / keyint=250 / keyint_min=24 / scenecut=40 / intra_refresh=0 / rc_lookahead=40 / rc=crf / mbtree=0 / crf=15.4000 / qcomp=0.60 / qpmin=0:0:0 / qpmax=69:69:69 / qpstep=4 / vbv_maxrate=50000 / vbv_bufsize=40000 / crf_max=0.0 / nal_hrd=none / filler=0 / ip_ratio=1.40 / pb_ratio=1.30 / aq=4:0.90 / aq-sensitivity=10.00 / aq-factor=1.00:1.00:1.00 / aq2=0 / aq3=0
Default                                  : Yes
Forced                                   : No

Audio
ID                                       : 2
Format                                   : DTS
Format/Info                              : Digital Theater Systems
Codec ID                                 : A_DTS
Duration                                 : 1 h 27 min
Bit rate mode                            : Constant
Bit rate                                 : 1 509 kb/s
Channel(s)                               : 6 channels
Channel layout                           : C L R Ls Rs LFE
Sampling rate                            : 48.0 kHz
Frame rate                               : 93.750 FPS (512 SPF)
Bit depth                                : 24 bits
Compression mode                         : Lossy
Stream size                              : 941 MiB (9%)
Title                                    : Spanish
Language                                 : Spanish
Default                                  : Yes
Forced                                   : No

Text #1
ID                                       : 3
Format                                   : UTF-8
Codec ID                                 : S_TEXT/UTF8
Codec ID/Info                            : UTF-8 Plain Text
Duration                                 : 1 h 26 min
Bit rate                                 : 71 b/s
Count of elements                        : 1512
Stream size                              : 45.2 KiB (0%)
Title                                    : SRT
Language                                 : English
Default                                  : Yes
Forced                                   : No

Text #2
ID                                       : 4
Format                                   : PGS
Muxing mode                              : zlib
Codec ID                                 : S_HDMV/PGS
Codec ID/Info                            : Picture based subtitle format used on BDs/HD-DVDs
Duration                                 : 1 h 26 min
Bit rate                                 : 46.9 kb/s
Count of elements                        : 3024
Stream size                              : 29.0 MiB (0%)
Title                                    : ENG
Language                                 : English
Default                                  : No
Forced                                   : No

Menu
00:00:00.000                             : 00:00:00.000
00:07:11.000                             : 00:07:11.000
00:13:37.625                             : 00:13:37.625
00:20:14.000                             : 00:20:14.000
00:28:08.583                             : 00:28:08.583
00:35:25.916                             : 00:35:25.916
00:43:14.833                             : 00:43:14.833
00:50:40.250                             : 00:50:40.250
00:57:36.958                             : 00:57:36.958
01:03:58.666                             : 01:03:58.666
01:12:06.000                             : 01:12:06.000
01:19:49.625                             : 01:19:49.625

be6b2dcfad0eaf9ea07d0be06ec77a2c.png

[/url]a08756402b96f4a7b171084242b12f1c.png

[/url]



                                                                                                                                                                                                        
                                                                                                                                                                                                                                                                                                                                                                                                                                                                                                                                                                                                                                                                                                                                                                                                                                                        
bbaab77f5f8e4d97e73f08036a8448b2.torrent (50.34 KB, 下载次数: 0)

回复

使用道具 举报

小黑屋|西西论坛

本网站所有资源来自网络,如无意中侵犯了您的权益,请发邮件至 [email protected],立即清除相关链接

GMT+8, 2021-6-15 02:56 , Processed in 0.065434 second(s), 17 queries .

Powered by Discuz! X3.2

© 2001-2013 Comsenz Inc.

快速回复 返回顶部 返回列表