西西论坛

 找回密码
 立即注册
搜索

星尘/大卫宝儿:无尽星麈 Stardust.2020.1080p.BluRay.x264.DTS-HD.MA.5.1-FGT 11.35GB ...

[复制链接]
admin 发表于 7 天前 | 显示全部楼层 |阅读模式
星尘/大卫宝儿:无尽星麈 Stardust.2020.1080p.BluRay.x264.DTS-HD.MA.5.1-FGT 11.35GB                                                                                                                                                                                                                                                                                                                                                                                                                                                                                                                                        -->
帖子完整标题:星尘/大卫宝儿:无尽星麈 Stardust.2020.1080p.BluRay.x264.DTS-HD.MA.5.1-FGT 11.35GB



dba84076cbc440fd035e6401d1c1f78d.jpg

[/url]

◎译  名 星尘/大卫宝儿:无尽星麈(港)/摇滚变色龙:大卫鲍伊(台)
◎片  名 Stardust
◎年  代 2020
◎产  地 英国
◎类  别 剧情
◎语  言 英语
◎上映日期 2020-04-15(翠贝卡电影节) / 2020-11-25(美国)
◎豆瓣评分 3.8/10 from 153 users
◎豆瓣链接 
◎片  长 109分钟
◎导  演 加布里埃尔·兰格 Gabriel Range
◎编  剧 加布里埃尔·兰格 Gabriel Range
◎主  演 强尼·弗林 Johnny Flynn
       吉娜·马隆 Jena Malone
       马克·马龙 Marc Maron
       亚伦·普尔 Aaron Poole
       保利诺·努内斯 Paulino Nunes
       安东尼·弗拉纳根 Anthony Flanagan
       吉米·斯达 Jimmy Star
       瑞恩·布雷克利 Ryan Blakely
       杰瑞米·勒加特 Jeremy Legat

◎标  签 传记 | 大卫鲍伊 | DavidBowie | 音乐 | 英国 | 2020 | Bowie | 剧情

◎简  介

  大卫·鲍伊的传记片真的来了。一部名为《星尘》(Stardust)的影片已在运作中,聚焦1971年,年轻的鲍伊第一次去往美国,激励了他创作出举世闻名的专辑和音乐形象“Ziggy Stardust”。定由歌手兼演员约翰尼·弗林(《野兽》)饰演鲍伊。
  
  还有吉娜·马隆(《饥饿游戏》)饰演鲍伊的第一任妻子Angie,马克·马隆(《美女摔角联盟》)饰演他的唱片公司宣传。导演则宣布为Gabriel Range(《我是奴隶》),今年6月开拍。
Video
ID                                       : 1
Format                                   : AVC
Format/Info                              : Advanced Video Codec
Format profile                           :
Format settings                          : CABAC / 4 Ref Frames
Format settings, CABAC                   : Yes
Format settings, Reference frames        : 4 frames
Codec ID                                 : V_MPEG4/ISO/AVC
Duration                                 : 1 h 48 min
Bit rate                                 : 11.5 Mb/s
Width                                    : 1 920 pixels
Height                                   : 1 040 pixels
Display aspect ratio                     : 1.85:1
Frame rate mode                          : Constant
Frame rate                               : 24.000 FPS
Color space                              : YUV
Chroma subsampling                       : 4:2:0
Bit depth                                : 8 bits
Scan type                                : Progressive
Bits/(Pixel*Frame)                       : 0.240
Stream size                              : 8.74 GiB (77%)
Writing library                          : x264 core 148 r2748 97eaef2
Encoding settings                        : cabac=1 / ref=4 / deblock=1:-2:-2 / analyse=0x3:0x113 / me=umh / subme=9 / psy=1 / psy_rd=1.00:0.15 / mixed_ref=1 / me_range=16 / chroma_me=1 / trellis=2 / 8x8dct=1 / cqm=0 / deadzone=21,11 / fast_pskip=1 / chroma_qp_offset=-3 / threads=72 / lookahead_threads=3 / sliced_threads=0 / nr=0 / decimate=1 / interlaced=0 / bluray_compat=0 / constrained_intra=0 / bframes=3 / b_pyramid=2 / b_adapt=1 / b_bias=0 / direct=3 / weightb=1 / open_gop=0 / weightp=2 / keyint=250 / keyint_min=25 / scenecut=40 / intra_refresh=0 / rc_lookahead=50 / rc=2pass / mbtree=1 / bitrate=11500 / ratetol=1.0 / qcomp=0.60 / qpmin=0 / qpmax=69 / qpstep=4 / cplxblur=20.0 / qblur=0.5 / vbv_maxrate=31250 / vbv_bufsize=31250 / nal_hrd=none / filler=0 / ip_ratio=1.40 / aq=1:1.00
Language                                 : English
Default                                  : Yes
Forced                                   : No

Audio
ID                                       : 2
ID in the original source medium         : 4352 (0x1100)
Format                                   : DTS XLL
Format/Info                              : Digital Theater Systems
Commercial name                          : DTS-HD Master Audio
Codec ID                                 : A_DTS
Duration                                 : 1 h 48 min
Bit rate mode                            : Variable
Bit rate                                 : 3 426 kb/s
Channel(s)                               : 6 channels
Channel layout                           : C L R Ls Rs LFE
Sampling rate                            : 48.0 kHz
Frame rate                               : 93.750 FPS (512 SPF)
Bit depth                                : 24 bits
Compression mode                         : Lossless
Stream size                              : 2.60 GiB (23%)
Title                                    : DTS-HD MA 5.1
Language                                 : English
Default                                  : Yes
Forced                                   : No
Original source medium                   : Blu-ray

Text
ID                                       : 3
Format                                   : UTF-8
Codec ID                                 : S_TEXT/UTF8
Codec ID/Info                            : UTF-8 Plain Text
Duration                                 : 1 h 44 min
Bit rate                                 : 63 b/s
Count of elements                        : 1709
Stream size                              : 48.7 KiB (0%)
Language                                 : English
Default                                  : Yes
Forced                                   : No

Menu
00:00:00.000                             : Chapter 01
00:09:00.291                             : Chapter 02
00:16:11.125                             : Chapter 03
00:25:08.041                             : Chapter 04
00:33:09.625                             : Chapter 05
00:41:51.333                             : Chapter 06
00:52:18.333                             : Chapter 07
00:59:27.708                             : Chapter 08
01:08:08.625                             : Chapter 09
01:17:33.708                             : Chapter 10
01:23:44.625                             : Chapter 11
01:33:17.375                             : Chapter 12
01:41:54.458                             : Chapter 13
01:45:32.958                             : Chapter 14

6a05d0696e3b1561d99fd186f481ec2f.png

[/url]ca3ed89becf86cf6cb3f9bd2114d6288.png

[/url]c914523744a4fbc28526279d0658d6b4.png

[/url]



                                                                                                                                                                                                        
                                                                                                                                                                                                                                                                                                                                                                                                                                                                                                                                                                                                                                                                                                                                                                                                                                                        
0da646c08df9e5441039addf51b7a815.torrent (57.35 KB, 下载次数: 0)

回复

使用道具 举报

小黑屋|西西论坛

本网站所有资源来自网络,如无意中侵犯了您的权益,请发邮件至 [email protected],立即清除相关链接

GMT+8, 2021-6-15 01:13 , Processed in 0.065790 second(s), 17 queries .

Powered by Discuz! X3.2

© 2001-2013 Comsenz Inc.

快速回复 返回顶部 返回列表