西西论坛

 找回密码
 立即注册
搜索

[追龙番外篇之十亿探长][纯净版][BT下载][WEB-MKV/3.24GB][国粤双语中字][1080P][王晶 ...

[复制链接]
admin 发表于 7 天前 | 显示全部楼层 |阅读模式
-->dcff2632c9a41ae99bf3844527f84a59.jpg


a3b20fc90c594c68af1be62011a417e7.jpg


◎译  名 Chasing The Dragon
◎片  名 追龙番外篇之十亿探长
◎年  代 2020
◎产  地 中国大陆
◎类  别 剧情 / 犯罪
◎语  言 汉语普通话 / 粤语
◎上映日期 2020-01-16(中国大陆)
◎主  演 王浩信 Vincent Wong
      徐冬冬 Dongdong Xu
      云千千 QianQian Yun
      郑则仕 Kent Cheng
      李子雄 Waise Lee
      周俊伟 Lawrence Chou
      尹扬明 Yeung Ming Wan
      林子善 Chi-Sing Lam
      韩昕怡 Xinyi Han
      曹思诗 Jaslena Cho

◎简  介  

  香港六七十年代,警黑勾结,贪污横行,社会怨气极重。这时候,生性善良率直的徐乐(王浩信 饰),由于家境不好,辍学加入警界,穿上警服,成为最普通的警员。初出茅庐却因为破获一场抢劫案得罪龙探长(李子雄 饰)舅甥,而遭到排挤贬压,调职到下水警局。处理事故纠纷时,帮助并结识了富家千金白珍妮(徐冬冬 饰),白珍妮对徐乐一见钟情。一方是一直陪伴自己的女朋友阿贞(云千千 饰),一方是能让自己摆脱困境的富家千金小姐,面临着权利与爱情的选择。徐乐如何扭转乾坤,步步高升,成为一代传奇探长......




  • Quote:
  • General
  • Unique ID                      : 66714244389084108886264788084797849170 (0x3230B23384BEFB9660622269D2B9BE52)
  • Complete name                  :  Chasing The Dragon 2020 WEB-DL 1080p H265 DDP 2.0 & AAC 2.0 3Audios-国粤双语中字.mkv
  • Format                         : Matroska
  • Format version                 : Version 4
  • File size                      : 3.23 GiB
  • Duration                       : 1 h 34 min
  • Overall bit rate               : 4 893 kb/s
  • Encoded date                   : UTC 2021-06-05 17:35:12
  • Writing application            : mkvmerge v19.0.0 (‘Brave Captain‘) 64-bit
  • Writing library                : libebml v1.3.5 + libmatroska v1.4.8

  • Video
  • ID                             : 1
  • Format                         : HEVC
  • Format/Info                    : High Efficiency Video Coding
  • Format profile                 : @High
  • Codec ID                       : V_MPEGH/ISO/HEVC
  • Duration                       : 1 h 34 min
  • Bit rate                       : 4 380 kb/s
  • Width                          : 1 920 pixels
  • Height                         : 816 pixels
  • Display aspect ratio           : 2.35:1
  • Frame rate mode                : Constant
  • Frame rate                     : 24.000 FPS
  • Color space                    : YUV
  • Chroma subsampling             : 4:2:0
  • Bit depth                      : 8 bits
  • Bits/(Pixel*Frame)             : 0.116
  • Stream size                    : 2.89 GiB (90%)
  • Default                        : Yes
  • Forced                         : No

  • Audio #1
  • ID                             : 2
  • Format                         : E-AC-3
  • Format/Info                    : Enhanced AC-3
  • Commercial name                : Dolby Digital Plus
  • Codec ID                       : A_EAC3
  • Duration                       : 1 h 34 min
  • Bit rate mode                  : Constant
  • Bit rate                       : 256 kb/s
  • Channel(s)                     : 2 channels
  • Channel layout                 : L R
  • Sampling rate                  : 48.0 kHz
  • Frame rate                     : 31.250 FPS (1536 SPF)
  • Compression mode               : Lossy
  • Delay relative to video        : -125 ms
  • Stream size                    : 173 MiB (5%)
  • Title                          : 国语 DDP 2.0
  • Language                       : Chinese
  • Service kind                   : Complete Main
  • Default                        : Yes
  • Forced                         : No

  • Audio #2
  • ID                             : 3
  • Format                         : AAC LC
  • Format/Info                    : Advanced Audio Codec Low Complexity
  • Codec ID                       : A_AAC-2
  • Duration                       : 1 h 34 min
  • Bit rate                       : 125 kb/s
  • Channel(s)                     : 2 channels
  • Channel layout                 : L R
  • Sampling rate                  : 44.1 kHz
  • Frame rate                     : 43.066 FPS (1024 SPF)
  • Compression mode               : Lossy
  • Delay relative to video        : -125 ms
  • Stream size                    : 84.3 MiB (3%)
  • Title                          : 国语 AAC 2.0
  • Language                       : Chinese
  • Default                        : No
  • Forced                         : No

  • Audio #3
  • ID                             : 4
  • Format                         : AAC LC
  • Format/Info                    : Advanced Audio Codec Low Complexity
  • Codec ID                       : A_AAC-2
  • Duration                       : 1 h 34 min
  • Bit rate                       : 128 kb/s
  • Channel(s)                     : 2 channels
  • Channel layout                 : L R
  • Sampling rate                  : 44.1 kHz
  • Frame rate                     : 43.066 FPS (1024 SPF)
  • Compression mode               : Lossy
  • Delay relative to video        : -125 ms
  • Stream size                    : 86.6 MiB (3%)
  • Title                          : 粤语 AAC 2.0
  • Language                       : Chinese
  • Default                        : No
  • Forced                         : No

  • Text #1
  • ID                             : 5
  • Format                         : UTF-8
  • Codec ID                       : S_TEXT/UTF8
  • Codec ID/Info                  : UTF-8 Plain Text
  • Duration                       : 1 h 29 min
  • Bit rate                       : 49 b/s
  • Count of elements              : 1658
  • Stream size                    : 32.3 KiB (0%)
  • Title                          : 简体中文
  • Language                       : Chinese
  • Default                        : Yes
  • Forced                         : No

  • Text #2
  • ID                             : 6
  • Format                         : UTF-8
  • Codec ID                       : S_TEXT/UTF8
  • Codec ID/Info                  : UTF-8 Plain Text
  • Duration                       : 1 h 29 min
  • Bit rate                       : 49 b/s
  • Count of elements              : 1658
  • Stream size                    : 32.3 KiB (0%)
  • Title                          : 繁体中文
  • Language                       : Chinese
  • Default                        : No
  • Forced                         : No

  • Text #3
  • ID                             : 7
  • Format                         : UTF-8
  • Codec ID                       : S_TEXT/UTF8
  • Codec ID/Info                  : UTF-8 Plain Text
  • Duration                       : 1 h 31 min
  • Bit rate                       : 51 b/s
  • Count of elements              : 1667
  • Stream size                    : 34.6 KiB (0%)
  • Title                          : 英语
  • Language                       : English
  • Default                        : No
  • Forced                         : No

  • Text #4
  • ID                             : 8
  • Format                         : UTF-8
  • Codec ID                       : S_TEXT/UTF8
  • Codec ID/Info                  : UTF-8 Plain Text
  • Duration                       : 1 h 31 min
  • Bit rate                       : 55 b/s
  • Count of elements              : 1667
  • Stream size                    : 37.4 KiB (0%)
  • Title                          : 韩语
  • Language                       : Korean
  • Default                        : No
  • Forced                         : No

  • Text #5
  • ID                             : 9
  • Format                         : UTF-8
  • Codec ID                       : S_TEXT/UTF8
  • Codec ID/Info                  : UTF-8 Plain Text
  • Duration                       : 1 h 31 min
  • Bit rate                       : 144 b/s
  • Count of elements              : 1667
  • Stream size                    : 96.3 KiB (0%)
  • Title                          : 泰语
  • Language                       : Thai
  • Default                        : No
  • Forced                         : No

  • Text #6
  • ID                             : 10
  • Format                         : UTF-8
  • Codec ID                       : S_TEXT/UTF8
  • Codec ID/Info                  : UTF-8 Plain Text
  • Duration                       : 1 h 31 min
  • Bit rate                       : 69 b/s
  • Count of elements              : 1667
  • Stream size                    : 46.6 KiB (0%)
  • Title                          : 马来语
  • Language                       : Malay
  • Default                        : No
  • Forced                         : No

  • Text #7
  • ID                             : 11
  • Format                         : UTF-8
  • Codec ID                       : S_TEXT/UTF8
  • Codec ID/Info                  : UTF-8 Plain Text
  • Duration                       : 1 h 31 min
  • Bit rate                       : 77 b/s
  • Count of elements              : 1667
  • Stream size                    : 51.8 KiB (0%)
  • Title                          : 越南语
  • Language                       : Vietnamese
  • Default                        : No
  • Forced                         : No

  • Text #8
  • ID                             : 12
  • Format                         : UTF-8
  • Codec ID                       : S_TEXT/UTF8
  • Codec ID/Info                  : UTF-8 Plain Text
  • Duration                       : 1 h 31 min
  • Bit rate                       : 63 b/s
  • Count of elements              : 1667
  • Stream size                    : 42.7 KiB (0%)
  • Title                          : 印尼语
  • Language                       : Indonesian
  • Default                        : No
  • Forced                         : No

  • Text #9
  • ID                             : 13
  • Format                         : UTF-8
  • Codec ID                       : S_TEXT/UTF8
  • Codec ID/Info                  : UTF-8 Plain Text
  • Duration                       : 1 h 31 min
  • Bit rate                       : 61 b/s
  • Count of elements              : 1667
  • Stream size                    : 40.9 KiB (0%)
  • Title                          : 西班牙语
  • Language                       : Spanish
  • Default                        : No
  • Forced                         : No

  • Text #10
  • ID                             : 14
  • Format                         : UTF-8
  • Codec ID                       : S_TEXT/UTF8
  • Codec ID/Info                  : UTF-8 Plain Text
  • Duration                       : 1 h 31 min
  • Bit rate                       : 83 b/s
  • Count of elements              : 1667
  • Stream size                    : 55.8 KiB (0%)
  • Title                          : 阿拉伯语
  • Language                       : Arabic
  • Default                        : No
  • Forced                         : No

[color=#336699 !important]复制代码
[color=#336699 !important]

aa677d8ceb7c540831ff84a3d74650cd.jpg


626829d96909f134a8d427c2cc1a7e3e.jpg


4c0427ee954e67b3ce7dcc9846079964.jpg


4fccb49fcaf1cd4264dbc063f73b1028.jpg


1e71be25e445cf839242a6d6dc82e247.jpg



e5f9ab3d6ba6afc6b4590b4c50560d15.jpg


7272b3114a4746f5c3b2f2823bf3e386.jpg


bbb9a84728f1f2c1b053b1938db9f51f.jpg


1fa76a1aa1b41ee127296b5d484bf02e.jpg


38b2d446b458a51864f568dd392f3b1c.jpg




                                                                                                                                                                                                        
                                                                                                                                                                                                                                                                                                                                                                                                                                                                                                                                                                                                                                                                                                                                                                                                                                                        
53731350b8d61a19309652c55e0c8290.torrent (31.42 KB, 下载次数: 0)

回复

使用道具 举报

小黑屋|西西论坛

本网站所有资源来自网络,如无意中侵犯了您的权益,请发邮件至 [email protected],立即清除相关链接

GMT+8, 2021-6-14 22:32 , Processed in 0.070099 second(s), 17 queries .

Powered by Discuz! X3.2

© 2001-2013 Comsenz Inc.

快速回复 返回顶部 返回列表