西西论坛

 找回密码
 立即注册
搜索

罗小黑战记 The.Legend.of.Hei.2019.CHINESE.DUAL.1080p.BluRay.x264.DTS-MT 6.01GB . ...

[复制链接]
admin 发表于 2021-5-16 08:51:16 | 显示全部楼层 |阅读模式
罗小黑战记 The.Legend.of.Hei.2019.CHINESE.DUAL.1080p.BluRay.x264.DTS-MT 6.01GB                                                                                                                                                                                                                                                                                                                                                                                                                                                                                                                                        -->
帖子完整标题:罗小黑战记 The.Legend.of.Hei.2019.CHINESE.DUAL.1080p.BluRay.x264.DTS-MT 6.01GB



59ef72a9997e1e29e68fd3034ea2d037.jpg

[/url]

◎译  名 The Legend of Hei/罗小黑战记大电影
◎片  名 罗小黑战记
◎年  代 2019
◎产  地 中国大陆
◎类  别 动作 / 动画 / 奇幻
◎语  言 汉语普通话
◎上映日期 2019-08-27(大规模点映) / 2019-09-07(中国大陆)
◎IMDb评分  7.2/10 from 811 users
◎IMDb链接  
◎豆瓣评分 8.2/10 from 445266 users
◎豆瓣链接 
◎片  长 101分钟
◎导  演 木头 MTJJ / 皇贞季 Zhen Wang / 顾杰
◎编  剧 木头 MTJJ / 彭可欣 Kexin Peng
◎主  演 山新 Shuang Wang
       郝祥海 Xianghai Hao
       刘明月 Mingyue Liu
       花泽香菜 Kana Hanazawa
       宫野真守 Mamoru Miyano
       樱井孝宏 Takahiro Sakurai
       大塚芳忠 H?ch? ?tsuka
       长岛雄一 Y?ichi Nagashima
       丰崎爱生 Aki Toyosaki
       齐藤壮马 Soma Saito
       杉田智和 Tomokazu Sugita
       松冈祯丞 Yoshitsugu Matsuoka
       水濑祈 Inori Minase

◎标  签 治愈 | 温情 | 动画 | 动漫 | 萌 | 中国大陆 | 二次元 | 成长

◎简  介

  在熙攘的人类世界里,很多妖精隐匿其中,他们与人类相安无事地生活着。猫妖罗小黑因为家园被破坏,开始了它的流浪之旅。这场旅途中惺惺相惜的妖精同类与和谐包容的人类伙伴相继出现,让小黑陷入了两难抉择,究竟何处才是真正的归属?

◎获奖情况

  第33届中国电影金鸡奖 ?(2020)
  最佳美术片(提名)
  
  第6届豆瓣电影年度榜单 ?(2019)
  评分最高的华语电影(提名)
  评分最高的动画片(提名)
Video
ID                                       : 1
Format                                   : AVC
Format/Info                              : Advanced Video Codec
Format profile                           :
Format settings                          : CABAC / 5 Ref Frames
Format settings, CABAC                   : Yes
Format settings, Reference frames        : 5 frames
Codec ID                                 : V_MPEG4/ISO/AVC
Duration                                 : 1 h 41 min
Bit rate                                 : 5 417 kb/s
Width                                    : 1 920 pixels
Height                                   : 808 pixels
Display aspect ratio                     : 2.40:1
Frame rate mode                          : Constant
Frame rate                               : 24.000 FPS
Color space                              : YUV
Chroma subsampling                       : 4:2:0
Bit depth                                : 8 bits
Scan type                                : Progressive
Bits/(Pixel*Frame)                       : 0.145
Stream size                              : 3.85 GiB (64%)
Writing library                          : x264 core 157 r2938 2b00a84  Mod
Encoding settings                        : cabac=1 / ref=5 / deblock=1:-3:-3 / analyse=0x3:0x133 / me=umh / subme=10 / psy=1 / psy_rd=1.05:0.00 / mixed_ref=1 / me_range=32 / chroma_me=1 / trellis=2 / 8x8dct=1 / cqm=0 / deadzone=21,11 / fast_pskip=0 / chroma_qp_offset=-2 / threads=12 / lookahead_threads=2 / sliced_threads=0 / nr=0 / decimate=0 / interlaced=0 / bluray_compat=0 / constrained_intra=0 / bframes=8 / b_pyramid=2 / b_adapt=2 / b_bias=0 / direct=3 / weightb=1 / open_gop=0 / weightp=2 / keyint=250 / keyint_min=24 / scenecut=40 / intra_refresh=0 / rc_lookahead=250 / rc=crf / mbtree=0 / crf=16.8 / qcomp=0.60 / qpmin=0 / qpmax=69 / qpstep=4 / vbv_maxrate=62500 / vbv_bufsize=78125 / crf_max=0.0 / nal_hrd=none / filler=0 / ip_ratio=1.30 / pb_ratio=1.20 / aq=3:0.80
Language                                 : English
Default                                  : Yes
Forced                                   : No
Color range                              : Limited
Color primaries                          : BT.709
Matrix coefficients                      : BT.709

Audio #1
ID                                       : 2
Format                                   : DTS
Format/Info                              : Digital Theater Systems
Codec ID                                 : A_DTS
Duration                                 : 1 h 41 min
Bit rate mode                            : Constant
Bit rate                                 : 1 509 kb/s
Channel(s)                               : 6 channels
Channel layout                           : C L R Ls Rs LFE
Sampling rate                            : 48.0 kHz
Frame rate                               : 93.750 FPS (512 SPF)
Bit depth                                : 24 bits
Compression mode                         : Lossy
Stream size                              : 1.07 GiB (18%)
Language                                 : Chinese
Default                                  : Yes
Forced                                   : No

Audio #2
ID                                       : 3
Format                                   : DTS
Format/Info                              : Digital Theater Systems
Codec ID                                 : A_DTS
Duration                                 : 1 h 41 min
Bit rate mode                            : Constant
Bit rate                                 : 1 509 kb/s
Channel(s)                               : 6 channels
Channel layout                           : C L R Ls Rs LFE
Sampling rate                            : 48.0 kHz
Frame rate                               : 93.750 FPS (512 SPF)
Bit depth                                : 24 bits
Compression mode                         : Lossy
Stream size                              : 1.07 GiB (18%)
Language                                 : English
Default                                  : No
Forced                                   : No

Text #1
ID                                       : 4
Format                                   : UTF-8
Codec ID                                 : S_TEXT/UTF8
Codec ID/Info                            : UTF-8 Plain Text
Duration                                 : 1 h 31 min
Bit rate                                 : 39 b/s
Count of elements                        : 1107
Stream size                              : 26.7 KiB (0%)
Title                                    : SRT
Language                                 : English
Default                                  : Yes
Forced                                   : No

Text #2
ID                                       : 5
Format                                   : PGS
Muxing mode                              : zlib
Codec ID                                 : S_HDMV/PGS
Codec ID/Info                            : Picture based subtitle format used on BDs/HD-DVDs
Duration                                 : 1 h 36 min
Bit rate                                 : 21.9 kb/s
Count of elements                        : 2470
Stream size                              : 15.2 MiB (0%)
Language                                 : English
Default                                  : No
Forced                                   : No

Text #3
ID                                       : 6
Format                                   : PGS
Muxing mode                              : zlib
Codec ID                                 : S_HDMV/PGS
Codec ID/Info                            : Picture based subtitle format used on BDs/HD-DVDs
Duration                                 : 1 h 41 min
Bit rate                                 : 29.6 kb/s
Count of elements                        : 3408
Stream size                              : 21.4 MiB (0%)
Title                                    : SDH
Language                                 : English
Default                                  : No
Forced                                   : No

Menu
00:00:00.000                             : Chapter 01
00:08:05.167                             : Chapter 02
00:17:40.875                             : Chapter 03
00:24:55.708                             : Chapter 04
00:33:40.083                             : Chapter 05
00:40:02.625                             : Chapter 06
00:45:36.542                             : Chapter 07
00:55:16.167                             : Chapter 08
01:03:11.375                             : Chapter 09
01:11:45.833                             : Chapter 10
01:19:40.792                             : Chapter 11
01:29:17.333                             : Chapter 12

75d61bc60f530676997f91aaf27cf5c9.png

[/url]e0b3e210d2587c2ef6887d62ec4e0aa6.png

[/url]0a2bce9d06f466ee1312e47dac96ca65.png

[/url]



                                                                                                                                                                                                        
                                                                                                                                                                                                                                                                                                                                                                                                                                                                                                                                                                                                                                                                                                                                                                                                                                                        
6c6cbad5b94ef7b6cb9b36602e16c553.torrent (30.69 KB, 下载次数: 0)

回复

使用道具 举报

小黑屋|西西论坛

本网站所有资源来自网络,如无意中侵犯了您的权益,请发邮件至 [email protected],立即清除相关链接

GMT+8, 2021-6-14 22:00 , Processed in 0.064764 second(s), 17 queries .

Powered by Discuz! X3.2

© 2001-2013 Comsenz Inc.

快速回复 返回顶部 返回列表