西西论坛

 找回密码
 立即注册
搜索

超级情报员麦汉4/勇破迷魂阵 The.Wrecking.Crew.1968.1080p.BluRay.x264.FLAC.2.0-NOG ...

[复制链接]
admin 发表于 2021-5-16 08:51:08 | 显示全部楼层 |阅读模式
超级情报员麦汉4/勇破迷魂阵 The.Wrecking.Crew.1968.1080p.BluRay.x264.FLAC.2.0-NOGRP 7.52GB                                                                                                                                                                                                                                                                                                                                                                                                                                                                                                                                        -->
帖子完整标题:超级情报员麦汉4/勇破迷魂阵 The.Wrecking.Crew.1968.1080p.BluRay.x264.FLAC.2.0-NOGRP 7.52GB



e78eea54df9ffd492a7b14db17154cac.jpg

[/url]

◎译  名 超级情报员麦汉4/勇破迷魂阵/风流特务勇破迷魂阵
◎片  名 The Wrecking Crew
◎年  代 1969
◎产  地 美国
◎类  别 剧情 / 喜剧 / 动作 / 冒险
◎语  言 英语
◎上映日期 1969-01-17
◎IMDb评分  5.6/10 from 2807 users
◎IMDb链接  
◎豆瓣评分 /10 from 0 users
◎豆瓣链接 
◎片  长 105 分钟
◎导  演 菲尔·卡尔森 Phil Karlson
◎编  剧 唐纳德·汉密尔顿 Donald Hamilton / 威廉·P·麦吉弗伦 William P. McGivern
◎主  演 迪恩·马丁 Dean Martin
       艾尔克·萨默 Elke Sommer
       莎朗·塔特 Sharon Tate
       关南施 Nancy Kwan
       查克·诺瑞斯 Chuck Norris
       Ted Jordan
       肯纳G.肯普 Kenner G. Kemp
       约翰·拉尔克 John Larch
       Pepper Martin
       拜伦·莫罗 Byron Morrow
       巴特利特·鲁滨逊 Bartlett Robinson
       Bill Saito
       Dick Winslow
       蒂娜·露易丝 Tina Louise
       托尼·乔治 Tony Giorgio
       Rex Holman
       奈杰尔·格林 Nigel Green
       Allen Pinson
       威赫姆·冯·霍姆伯格 Wilhelm von Homburg
       David Chow
       Noel Drayton
       Fuji
       Harry Fleer
       Joe Gray
       John Brascia

◎标  签 美国 | 喜剧 | 1969 | 动作 | 美国电影 | 关南施 | PhilKarlson | ElkeSommer

◎简  介

  本片是以前任ICE情报局探员Matt Helm(迪恩·马丁 Dean Martin 饰)为主角的系列电影第四集(总共有四集)。
  
  这次麦特的任务是解救世界经济危机。
Video
ID                                       : 1
Format                                   : AVC
Format/Info                              : Advanced Video Codec
Format profile                           :
Format settings                          : CABAC / 4 Ref Frames
Format settings, CABAC                   : Yes
Format settings, Reference frames        : 4 frames
Codec ID                                 : V_MPEG4/ISO/AVC
Duration                                 : 1 h 44 min
Bit rate                                 : 9 957 kb/s
Width                                    : 1 920 pixels
Height                                   : 1 080 pixels
Display aspect ratio                     : 16:9
Frame rate mode                          : Constant
Frame rate                               : 23.976 (24000/1001/189150) FPS
Color space                              : YUV
Chroma subsampling                       : 4:2:0
Bit depth                                : 8 bits
Scan type                                : Progressive
Bits/(Pixel*Frame)                       : 0.200
Stream size                              : 7.30 GiB (97%)
Writing library                          : x264 core 157 r2935 545de2f
Encoding settings                        : cabac=1 / ref=4 / deblock=1:-3:-3 / analyse=0x3:0x133 / me=umh / subme=10 / psy=1 / psy_rd=1.00:0.00 / mixed_ref=1 / me_range=32 / chroma_me=1 / trellis=2 / 8x8dct=1 / cqm=0 / deadzone=21,11 / fast_pskip=0 / chroma_qp_offset=-2 / threads=18 / lookahead_threads=4 / sliced_threads=0 / nr=0 / decimate=0 / interlaced=0 / bluray_compat=0 / constrained_intra=0 / bframes=16 / b_pyramid=2 / b_adapt=2 / b_bias=0 / direct=3 / weightb=1 / open_gop=0 / weightp=2 / keyint=240 / keyint_min=24 / scenecut=40 / intra_refresh=0 / rc_lookahead=60 / rc=crf / mbtree=0 / crf=22.0 / qcomp=0.60 / qpmin=0 / qpmax=69 / qpstep=4 / vbv_maxrate=62500 / vbv_bufsize=78125 / crf_max=0.0 / nal_hrd=none / filler=0 / ip_ratio=1.40 / pb_ratio=1.30 / aq=3:0.60
Default                                  : Yes
Forced                                   : No
Color range                              : Limited
Color primaries                          : BT.709
Transfer characteristics                 : BT.709
Matrix coefficients                      : BT.709

Audio
ID                                       : 2
Format                                   : FLAC
Format/Info                              : Free Lossless Audio Codec
Codec ID                                 : A_FLAC
Duration                                 : 1 h 44 min
Bit rate mode                            : Variable
Bit rate                                 : 301 kb/s
Channel(s)                               : 2 channels
Channel layout                           : L R
Sampling rate                            : 48.0 kHz
Frame rate                               : 11.719 FPS (4096 SPF)
Bit depth                                : 16 bits
Compression mode                         : Lossless
Stream size                              : 226 MiB (3%)
Writing library                          : libFLAC 1.2.1 (UTC 2007-09-17)
Language                                 : English
Default                                  : Yes
Forced                                   : No

Text
ID                                       : 3
Format                                   : UTF-8
Codec ID                                 : S_TEXT/UTF8
Codec ID/Info                            : UTF-8 Plain Text
Duration                                 : 1 h 44 min
Bit rate                                 : 38 b/s
Count of elements                        : 1009
Stream size                              : 29.7 KiB (0%)
Language                                 : English
Default                                  : No
Forced                                   : No

Menu
00:00:00.000                             : :Chapter 01
00:12:59.362                             : :Chapter 02
00:25:20.310                             : :Chapter 03
00:36:34.609                             : :Chapter 04
00:51:04.311                             : :Chapter 05
01:05:06.569                             : :Chapter 06
01:20:00.963                             : :Chapter 07
01:28:46.613                             : :Chapter 08

87fcb073c3eaaa6a23e2c8535a1106c2.png

[/url]7bf085b741a2a821d5acdc895da69d6f.png

[/url]da9dea32f3cb060be41f2395cff90ddb.png

[/url]



                                                                                                                                                                                                        
                                                                                                                                                                                                                                                                                                                                                                                                                                                                                                                                                                                                                                                                                                                                                                                                                                                        
a3ad25e30255ce7a0afe0d52e1d4ab5d.torrent (38.23 KB, 下载次数: 0)

回复

使用道具 举报

小黑屋|西西论坛

本网站所有资源来自网络,如无意中侵犯了您的权益,请发邮件至 [email protected],立即清除相关链接

GMT+8, 2021-6-14 22:44 , Processed in 0.065929 second(s), 17 queries .

Powered by Discuz! X3.2

© 2001-2013 Comsenz Inc.

快速回复 返回顶部 返回列表