西西论坛

 找回密码
 立即注册
搜索

素人特工 The.Rookies.2019.1080p.BluRay.x264.DTS-HD.MA.5.1-MT 12.83GB

[复制链接]
admin 发表于 2021-5-16 08:51:05 | 显示全部楼层 |阅读模式
素人特工 The.Rookies.2019.1080p.BluRay.x264.DTS-HD.MA.5.1-MT 12.83GB                                                                                                                                                                                                                                                                                                                                                                                                                                                                                                                                        -->
帖子完整标题:素人特工 The.Rookies.2019.1080p.BluRay.x264.DTS-HD.MA.5.1-MT 12.83GB



1e31e053194a33c9a91c153a6323f6f3.jpg

[/url]

◎译  名 The Rookies
◎片  名 素人特工
◎年  代 2019
◎产  地 中国大陆
◎类  别 喜剧 / 动作 / 冒险
◎语  言 汉语普通话
◎上映日期 2019-07-12(中国大陆)
◎豆瓣评分 3.5/10 from 36242 users
◎豆瓣链接 
◎片  长 113分钟
◎导  演 袁锦麟 Alan Yuen
◎编  剧 袁锦麟 Alan Yuen / 徐磊 Lei Xu
◎主  演 王大陆 Talu Wang
       张榕容 Sandrine Pinna
       米拉·乔沃维奇 Milla Jovovich
       许魏洲 Weizhou Xu
       刘美彤 Meitong Liu
       肖战 Zhan Xiao
       林雪 Suet Lam
       大卫·麦金尼斯 David  McInnis
       鲁诺 Nuo Lu
       陈国坤 Kwok-Kwan Chan
       周海媚 Kathy Chow
       安得路 Andrew Lane Cawthon

◎标  签 特工 | 喜剧 | 动作 | 中国大陆 | 中国 | 大陆 | 2019 | 犯罪

◎简  介

  极限运动达人赵风(王大陆 饰),误打误撞闯入了一场国际犯罪交易,不得不跟随国际特工(米拉·乔沃维奇 饰)一起前往布达佩斯。在这里他与废柴刑警淼淼(张榕容 饰)、民间科学家丁山(许魏洲 饰)与待业医生LV(刘美彤 饰)组成一支素人特工小队。这四个特工小白和高级国际特攻米拉一起,与恐怖分子开启了一场又惊又喜的斗争。
Video
ID                                       : 1
Format                                   : AVC
Format/Info                              : Advanced Video Codec
Format profile                           :
Format settings                          : CABAC / 5 Ref Frames
Format settings, CABAC                   : Yes
Format settings, Reference frames        : 5 frames
Codec ID                                 : V_MPEG4/ISO/AVC
Duration                                 : 1 h 53 min
Bit rate                                 : 13.3 Mb/s
Width                                    : 1 920 pixels
Height                                   : 798 pixels
Display aspect ratio                     : 2.40:1
Frame rate mode                          : Constant
Frame rate                               : 23.976 (24000/1001/189150) FPS
Color space                              : YUV
Chroma subsampling                       : 4:2:0
Bit depth                                : 8 bits
Scan type                                : Progressive
Bits/(Pixel*Frame)                       : 0.362
Stream size                              : 10.5 GiB (82%)
Writing library                          : x264 core 157 r2938 2b00a84  Mod
Encoding settings                        : cabac=1 / ref=5 / deblock=1:-3:-3 / analyse=0x3:0x133 / me=umh / subme=10 / psy=1 / psy_rd=1.05:0.00 / mixed_ref=1 / me_range=32 / chroma_me=1 / trellis=2 / 8x8dct=1 / cqm=0 / deadzone=21,11 / fast_pskip=0 / chroma_qp_offset=-2 / threads=12 / lookahead_threads=2 / sliced_threads=0 / nr=0 / decimate=0 / interlaced=0 / bluray_compat=0 / constrained_intra=0 / bframes=8 / b_pyramid=2 / b_adapt=2 / b_bias=0 / direct=3 / weightb=1 / open_gop=0 / weightp=2 / keyint=250 / keyint_min=24 / scenecut=40 / intra_refresh=0 / rc_lookahead=250 / rc=crf / mbtree=0 / crf=16.8 / qcomp=0.60 / qpmin=0 / qpmax=69 / qpstep=4 / vbv_maxrate=62500 / vbv_bufsize=78125 / crf_max=0.0 / nal_hrd=none / filler=0 / ip_ratio=1.30 / pb_ratio=1.20 / aq=3:0.80
Language                                 : English
Default                                  : Yes
Forced                                   : No
Color range                              : Limited
Color primaries                          : BT.709
Matrix coefficients                      : BT.709

Audio
ID                                       : 2
Format                                   : DTS XLL
Format/Info                              : Digital Theater Systems
Commercial name                          : DTS-HD Master Audio
Codec ID                                 : A_DTS
Duration                                 : 1 h 53 min
Bit rate mode                            : Variable
Bit rate                                 : 2 911 kb/s
Channel(s)                               : 6 channels
Channel layout                           : C L R Ls Rs LFE
Sampling rate                            : 48.0 kHz
Frame rate                               : 93.750 FPS (512 SPF)
Bit depth                                : 24 bits
Compression mode                         : Lossless
Stream size                              : 2.30 GiB (18%)
Language                                 : English
Default                                  : Yes
Forced                                   : No

Text #1
ID                                       : 3
Format                                   : UTF-8
Codec ID                                 : S_TEXT/UTF8
Codec ID/Info                            : UTF-8 Plain Text
Duration                                 : 1 h 50 min
Bit rate                                 : 45 b/s
Count of elements                        : 1462
Stream size                              : 37.1 KiB (0%)
Title                                    : SRT
Language                                 : English
Default                                  : Yes
Forced                                   : No

Text #2
ID                                       : 4
Format                                   : PGS
Muxing mode                              : zlib
Codec ID                                 : S_HDMV/PGS
Codec ID/Info                            : Picture based subtitle format used on BDs/HD-DVDs
Duration                                 : 1 h 52 min
Bit rate                                 : 43.1 kb/s
Count of elements                        : 4282
Stream size                              : 34.8 MiB (0%)
Language                                 : English
Default                                  : No
Forced                                   : No

Menu
00:00:00.000                             : Chapter 01
00:09:07.881                             : Chapter 02
00:22:03.864                             : Chapter 03
00:30:29.828                             : Chapter 04
00:38:59.963                             : Chapter 05
00:50:03.167                             : Chapter 06
00:59:44.539                             : Chapter 07
01:08:55.173                             : Chapter 08
01:18:04.555                             : Chapter 09
01:28:21.505                             : Chapter 10
01:36:45.883                             : Chapter 11
01:43:08.391                             : Chapter 12

dd61e7843d2da574762a987511a61fc4.png

[/url]cbd00f6697ab07d51dfbda70a5aee0a6.png

[/url]cc8649f7e90d35be54210e3ab6205b0e.png

[/url]



                                                                                                                                                                                                        
                                                                                                                                                                                                                                                                                                                                                                                                                                                                                                                                                                                                                                                                                                                                                                                                                                                        
a5e3be8584bbcf05c844871db71704d7.torrent (64.76 KB, 下载次数: 0)

回复

使用道具 举报

小黑屋|西西论坛

本网站所有资源来自网络,如无意中侵犯了您的权益,请发邮件至 [email protected],立即清除相关链接

GMT+8, 2021-6-14 23:58 , Processed in 0.066247 second(s), 17 queries .

Powered by Discuz! X3.2

© 2001-2013 Comsenz Inc.

快速回复 返回顶部 返回列表