西西论坛

 找回密码
 立即注册
搜索

小镇缉凶/迷雾中的小镇 The.Dry.2020.1080p.BluRay.x264.DTS-FGT 10.64GB

[复制链接]
admin 发表于 2021-5-15 17:12:46 | 显示全部楼层 |阅读模式
小镇缉凶/迷雾中的小镇 The.Dry.2020.1080p.BluRay.x264.DTS-FGT 10.64GB                                                                                                                                                                                                                                                                                                                                                                                                                                                                                                                                        -->
帖子完整标题:小镇缉凶/迷雾中的小镇 The.Dry.2020.1080p.BluRay.x264.DTS-FGT 10.64GB



b86d48b43dc3fecc890e16a78f371494.jpg

[/url]

◎译  名 小镇缉凶/迷雾中的小镇
◎片  名 The Dry
◎年  代 2020
◎产  地 美国
◎类  别 剧情
◎语  言 英语
◎上映日期 2021-01-01(澳大利亚)
◎IMDb评分  7/10 from 7821 users
◎IMDb链接  
◎豆瓣评分 7.0/10 from 188 users
◎豆瓣链接 
◎片  长 117分钟
◎导  演 罗伯特·康诺利 Robert Connolly
◎编  剧 罗伯特·康诺利 Robert Connolly
◎主  演 艾瑞克·巴纳 Eric Bana
       吉娜薇·欧瑞丽 Genevieve O'Reilly
       基尔·奥唐纳 Keir O'Donnell
       约翰·波尔森 John Polson
       朱丽娅·布莱克 Julia Blake
       布鲁斯·斯宾斯 Bruce Spence
       威廉·扎帕 William Zappa
       马特·纳夫莱 Matt Nable
       詹姆斯·弗兰切威勒 James Frecheville
       杰里米·林赛·泰勒 Jeremy Lindsay Taylor
       乔·克洛塞克 Joe Klocek
       碧比·贝登科特 BeBe Bettencourt
       克劳德·斯科特-米歇尔 Claude Scott-Mitchell
       山姆·科利特 Sam Corlett

◎标  签 犯罪 | 澳大利亚 | 悬疑 | 澳大利亚电影 | 艾瑞克·巴纳 | 剧情 | 原著改编 | 电影

◎简  介

  艾瑞克·巴纳加盟澳大利亚新片[小镇缉凶](The Dry,暂译)。影片改编自简·哈珀同名畅销小说,罗伯特·康诺利(《深暗势力》)自编自导,巴纳、康诺利共同担任监制。影片围绕一个警察回到老家侦破凶案展开,明年二月开机。这也是巴纳自2007年的[我的父亲,罗穆卢斯]后再度拍摄澳大利亚影片。
Video
ID                                       : 1
Format                                   : AVC
Format/Info                              : Advanced Video Codec
Format profile                           :
Format settings                          : CABAC / 4 Ref Frames
Format settings, CABAC                   : Yes
Format settings, Reference frames        : 4 frames
Codec ID                                 : V_MPEG4/ISO/AVC
Duration                                 : 1 h 57 min
Bit rate                                 : 11.5 Mb/s
Width                                    : 1 920 pixels
Height                                   : 802 pixels
Display aspect ratio                     : 2.40:1
Frame rate mode                          : Constant
Frame rate                               : 24.000 FPS
Color space                              : YUV
Chroma subsampling                       : 4:2:0
Bit depth                                : 8 bits
Scan type                                : Progressive
Bits/(Pixel*Frame)                       : 0.311
Stream size                              : 9.40 GiB (88%)
Writing library                          : x264 core 148 r2795M aaa9aa8
Encoding settings                        : cabac=1 / ref=4 / deblock=1:-2:-2 / analyse=0x3:0x113 / me=umh / subme=9 / psy=1 / psy_rd=1.00:0.15 / mixed_ref=1 / me_range=16 / chroma_me=1 / trellis=2 / 8x8dct=1 / cqm=0 / deadzone=21,11 / fast_pskip=1 / chroma_qp_offset=-3 / threads=24 / lookahead_threads=3 / sliced_threads=0 / nr=0 / decimate=1 / interlaced=0 / bluray_compat=0 / constrained_intra=0 / bframes=3 / b_pyramid=2 / b_adapt=1 / b_bias=0 / direct=3 / weightb=1 / open_gop=0 / weightp=2 / keyint=250 / keyint_min=25 / scenecut=40 / intra_refresh=0 / rc_lookahead=50 / rc=2pass / mbtree=1 / bitrate=11500 / ratetol=1.0 / qcomp=0.60 / qpmin=0 / qpmax=69 / qpstep=4 / cplxblur=20.0 / qblur=0.5 / vbv_maxrate=31250 / vbv_bufsize=31250 / nal_hrd=none / filler=0 / ip_ratio=1.40 / aq=1:1.00
Language                                 : English
Default                                  : Yes
Forced                                   : No

Audio
ID                                       : 2
Format                                   : DTS
Format/Info                              : Digital Theater Systems
Codec ID                                 : A_DTS
Duration                                 : 1 h 57 min
Bit rate mode                            : Constant
Bit rate                                 : 1 509 kb/s
Channel(s)                               : 6 channels
Channel layout                           : C L R Ls Rs LFE
Sampling rate                            : 48.0 kHz
Frame rate                               : 93.750 FPS (512 SPF)
Bit depth                                : 16 bits
Compression mode                         : Lossy
Stream size                              : 1.24 GiB (12%)
Language                                 : English
Default                                  : Yes
Forced                                   : No

Text
ID                                       : 3
Format                                   : UTF-8
Codec ID                                 : S_TEXT/UTF8
Codec ID/Info                            : UTF-8 Plain Text
Duration                                 : 1 h 53 min
Bit rate                                 : 47 b/s
Count of elements                        : 1351
Stream size                              : 39.5 KiB (0%)
Title                                    : English-SRT
Language                                 : English
Default                                  : Yes
Forced                                   : No

Menu
00:00:00.000                             : Chapter 01
00:10:18.125                             : Chapter 02
00:18:41.250                             : Chapter 03
00:27:51.458                             : Chapter 04
00:37:40.208                             : Chapter 05
00:45:57.000                             : Chapter 06
00:55:04.042                             : Chapter 07
01:03:10.875                             : Chapter 08
01:15:37.542                             : Chapter 09
01:24:29.583                             : Chapter 10
01:32:51.208                             : Chapter 11
01:45:40.667                             : Chapter 12

b584912ef3480db0c943713c7e7e093f.png

[/url]6a6e85d8473fde4f7515aa4640734869.png

[/url]4ea73c3dc2432210a101dbcbe298de14.png

[/url]



                                                                                                                                                                                                        
                                                                                                                                                                                                                                                                                                                                                                                                                                                                                                                                                                                                                                                                                                                                                                                                                                                        
00e07d425fb80ddceddac297db6ac296.torrent (53.82 KB, 下载次数: 0)

回复

使用道具 举报

小黑屋|西西论坛

本网站所有资源来自网络,如无意中侵犯了您的权益,请发邮件至 [email protected],立即清除相关链接

GMT+8, 2021-6-14 23:18 , Processed in 0.062654 second(s), 17 queries .

Powered by Discuz! X3.2

© 2001-2013 Comsenz Inc.

快速回复 返回顶部 返回列表