西西论坛

 找回密码
 立即注册
搜索

风雨故人情/寂寞庭院恩怨深 The.Chalk.Garden.1964.1080p.BluRay.x264-GAZER 15.18GB ...

[复制链接]
admin 发表于 2021-5-15 17:12:30 | 显示全部楼层 |阅读模式
风雨故人情/寂寞庭院恩怨深 The.Chalk.Garden.1964.1080p.BluRay.x264-GAZER 15.18GB                                                                                                                                                                                                                                                                                                                                                                                                                                                                                                                                        -->
帖子完整标题:风雨故人情/寂寞庭院恩怨深 The.Chalk.Garden.1964.1080p.BluRay.x264-GAZER 15.18GB



0e999c301ac2a665bee2448358826070.jpg

[/url]

◎译  名 风雨故人情/寂寞庭院恩怨深/白垩花园
◎片  名 The Chalk Garden
◎年  代 1964
◎产  地 美国,英国
◎类  别 剧情
◎语  言 英语
◎上映日期 1964-05-21
◎豆瓣评分 /10 from 0 users
◎豆瓣链接 
◎片  长 Spain: 105 分钟
◎导  演 罗纳德·尼姆 Ronald Neame
◎编  剧 约翰·迈克尔·海耶斯 John Michael Hayes / Enid Bagnold
◎主  演 黛博拉·蔻儿 Deborah Kerr
       海莉·米尔斯 Hayley Mills
       约翰·米尔斯 John Mills
       伊迪斯·伊万斯 Edith Evans
       费利克斯·艾尔默 Felix Aylmer
       伊丽莎白·塞拉斯 Elizabeth Sellars
       Lally Bowers
       Toke Townley

◎标  签 英国 | Deborah_Kerr | 美国 | DeborahKerr | 黛博拉·蔻儿 | 美国电影 | 剧情 | 1964

◎简  介

  A grandmother seeks a governess for her 16 year old granddaughter, Laurel, who manages to drive away each and every one so far by exposing their past, with a record of three in one week! When an applicant with a mysterious past manages to get the job, Laurel vows to expose her. Meanwhile, Laurel's married-divorced-married mother tries to get her back

◎获奖情况

  第37届奥斯卡金像奖 ?(1965)
  最佳女配角(提名) 伊迪斯·伊万斯
Video
ID                                       : 1
Format                                   : AVC
Format/Info                              : Advanced Video Codec
Format profile                           :
Format settings                          : CABAC / 4 Ref Frames
Format settings, CABAC                   : Yes
Format settings, Reference frames        : 4 frames
Codec ID                                 : V_MPEG4/ISO/AVC
Duration                                 : 1 h 46 min
Bit rate                                 : 19.6 Mb/s
Width                                    : 1 920 pixels
Height                                   : 1 040 pixels
Display aspect ratio                     : 1.85:1
Frame rate mode                          : Constant
Frame rate                               : 23.976 (24000/1001/189150) FPS
Color space                              : YUV
Chroma subsampling                       : 4:2:0
Bit depth                                : 8 bits
Scan type                                : Progressive
Bits/(Pixel*Frame)                       : 0.409
Stream size                              : 14.5 GiB (96%)
Writing library                          : x264 core 163 r3059 b684ebe
Encoding settings                        : cabac=1 / ref=4 / deblock=1:-3:-3 / analyse=0x3:0x133 / me=umh / subme=10 / psy=1 / psy_rd=1.50:0.15 / mixed_ref=1 / me_range=24 / chroma_me=1 / trellis=2 / 8x8dct=1 / cqm=0 / deadzone=21,11 / fast_pskip=0 / chroma_qp_offset=-3 / threads=24 / lookahead_threads=4 / sliced_threads=0 / nr=0 / decimate=0 / interlaced=0 / bluray_compat=0 / constrained_intra=0 / bframes=8 / b_pyramid=2 / b_adapt=2 / b_bias=0 / direct=3 / weightb=1 / open_gop=0 / weightp=2 / keyint=250 / keyint_min=23 / scenecut=40 / intra_refresh=0 / rc_lookahead=60 / rc=crf / mbtree=1 / crf=21.0 / qcomp=0.60 / qpmin=0 / qpmax=69 / qpstep=4 / ip_ratio=1.40 / aq=3:0.50
Default                                  : Yes
Forced                                   : No
Color range                              : Limited
Matrix coefficients                      : BT.709

Audio #1
ID                                       : 2
Format                                   : FLAC
Format/Info                              : Free Lossless Audio Codec
Codec ID                                 : A_FLAC
Duration                                 : 1 h 46 min
Bit rate mode                            : Variable
Bit rate                                 : 647 kb/s
Channel(s)                               : 1 channel
Channel layout                           : C
Sampling rate                            : 48.0 kHz
Frame rate                               : 11.719 FPS (4096 SPF)
Bit depth                                : 24 bits
Compression mode                         : Lossless
Stream size                              : 492 MiB (3%)
Writing library                          : libFLAC 1.3.3 (UTC 2019-08-04)
Language                                 : English
Default                                  : Yes
Forced                                   : No

Audio #2
ID                                       : 3
Format                                   : AAC LC
Format/Info                              : Advanced Audio Codec Low Complexity
Codec ID                                 : A_AAC-2
Duration                                 : 1 h 46 min
Bit rate                                 : 96.0 kb/s
Channel(s)                               : 2 channels
Channel layout                           : L R
Sampling rate                            : 48.0 kHz
Frame rate                               : 46.875 FPS (1024 SPF)
Compression mode                         : Lossy
Delay relative to video                  : 20 ms
Stream size                              : 73.4 MiB (0%)
Title                                    : Commentary
Language                                 : English
Default                                  : No
Forced                                   : No

Audio #3
ID                                       : 4
Format                                   : AAC LC
Format/Info                              : Advanced Audio Codec Low Complexity
Codec ID                                 : A_AAC-2
Duration                                 : 1 h 46 min
Bit rate                                 : 121 kb/s
Channel(s)                               : 2 channels
Channel layout                           : L R
Sampling rate                            : 48.0 kHz
Frame rate                               : 46.875 FPS (1024 SPF)
Compression mode                         : Lossy
Delay relative to video                  : 20 ms
Stream size                              : 91.7 MiB (1%)
Title                                    : Commentary
Language                                 : English
Default                                  : No
Forced                                   : No

Text
ID                                       : 5
Format                                   : PGS
Muxing mode                              : zlib
Codec ID                                 : S_HDMV/PGS
Codec ID/Info                            : Picture based subtitle format used on BDs/HD-DVDs
Duration                                 : 1 h 43 min
Bit rate                                 : 49.4 kb/s
Count of elements                        : 3422
Stream size                              : 36.5 MiB (0%)
Title                                    : SDH
Language                                 : English
Default                                  : No
Forced                                   : No

Menu
00:00:00.000                             : en:Chapter 01
00:09:47.962                             : en:Chapter 02
00:19:32.755                             : en:Chapter 03
00:26:52.694                             : en:Chapter 04
00:34:30.610                             : en:Chapter 05
00:43:21.641                             : en:Chapter 06
00:54:50.871                             : en:Chapter 07
01:00:21.660                             : en:Chapter 08
01:13:16.267                             : en:Chapter 09
01:18:47.181                             : en:Chapter 10
01:28:08.617                             : en:Chapter 11
01:40:52.129                             : en:Chapter 12

af49638a59b4f5b1bdc636fb13748c8e.jpg

[/url]



                                                                                                                                                                                                        
                                                                                                                                                                                                                                                                                                                                                                                                                                                                                                                                                                                                                                                                                                                                                                                                                                                        
6d47842ae1899050463577f246dc3700.torrent (76.74 KB, 下载次数: 0)

回复

使用道具 举报

小黑屋|西西论坛

本网站所有资源来自网络,如无意中侵犯了您的权益,请发邮件至 [email protected],立即清除相关链接

GMT+8, 2021-6-14 23:49 , Processed in 0.066634 second(s), 17 queries .

Powered by Discuz! X3.2

© 2001-2013 Comsenz Inc.

快速回复 返回顶部 返回列表