西西论坛

 找回密码
 立即注册
搜索

美国斗士 American.Fighter.2019.1080p.BluRay.x264.DTS-HD.MA.5.1-MT 9.40GB

[复制链接]
admin 发表于 2021-5-15 17:11:48 | 显示全部楼层 |阅读模式
美国斗士 American.Fighter.2019.1080p.BluRay.x264.DTS-HD.MA.5.1-MT 9.40GB                                                                                                                                                                                                                                                                                                                                                                                                                                                                                                                                        -->
帖子完整标题:美国斗士 American.Fighter.2019.1080p.BluRay.x264.DTS-HD.MA.5.1-MT 9.40GB



7dd17eb619d6b56d8292969fdeff6749.jpg

[/url]

◎译  名 美国斗士
◎片  名 american fighter
◎年  代 2019
◎产  地 美国
◎类  别 动作 / 运动
◎语  言 英语
◎上映日期 
◎豆瓣评分 /10 from 0 users
◎豆瓣链接 
◎片  长 98分钟

◎标  签 美国 | 青春 | 2020北京国际电影节 | 2019 | 还电影节作品 | 运动 | 温情 | 没啥放了吗?

◎简  介

  A desperate teenager is forced into the dangerous world of underground fighting to win enough money to save his ailing mother. He finds out what he's made of in the face of these violent hungry competitors.
Video
ID                                       : 1
Format                                   : AVC
Format/Info                              : Advanced Video Codec
Format profile                           :
Format settings                          : CABAC / 5 Ref Frames
Format settings, CABAC                   : Yes
Format settings, Reference frames        : 5 frames
Codec ID                                 : V_MPEG4/ISO/AVC
Duration                                 : 1 h 38 min
Bit rate                                 : 9 760 kb/s
Width                                    : 1 920 pixels
Height                                   : 804 pixels
Display aspect ratio                     : 2.40:1
Frame rate mode                          : Constant
Frame rate                               : 23.976 (24000/1001/189150) FPS
Color space                              : YUV
Chroma subsampling                       : 4:2:0
Bit depth                                : 8 bits
Scan type                                : Progressive
Bits/(Pixel*Frame)                       : 0.264
Stream size                              : 6.71 GiB (71%)
Writing library                          : x264 core 157 r2938 2b00a84  Mod
Encoding settings                        : cabac=1 / ref=5 / deblock=1:-3:-3 / analyse=0x3:0x133 / me=umh / subme=10 / psy=1 / psy_rd=1.05:0.00 / mixed_ref=1 / me_range=32 / chroma_me=1 / trellis=2 / 8x8dct=1 / cqm=0 / deadzone=21,11 / fast_pskip=0 / chroma_qp_offset=-2 / threads=12 / lookahead_threads=2 / sliced_threads=0 / nr=0 / decimate=0 / interlaced=0 / bluray_compat=0 / constrained_intra=0 / bframes=8 / b_pyramid=2 / b_adapt=2 / b_bias=0 / direct=3 / weightb=1 / open_gop=0 / weightp=2 / keyint=250 / keyint_min=24 / scenecut=40 / intra_refresh=0 / rc_lookahead=250 / rc=crf / mbtree=0 / crf=16.8 / qcomp=0.60 / qpmin=0 / qpmax=69 / qpstep=4 / vbv_maxrate=62500 / vbv_bufsize=78125 / crf_max=0.0 / nal_hrd=none / filler=0 / ip_ratio=1.30 / pb_ratio=1.20 / aq=3:0.80
Language                                 : English
Default                                  : Yes
Forced                                   : No
Color range                              : Limited
Color primaries                          : BT.709
Matrix coefficients                      : BT.709

Audio
ID                                       : 2
Format                                   : DTS XLL
Format/Info                              : Digital Theater Systems
Commercial name                          : DTS-HD Master Audio
Codec ID                                 : A_DTS
Duration                                 : 1 h 38 min
Bit rate mode                            : Variable
Bit rate                                 : 3 897 kb/s
Channel(s)                               : 6 channels
Channel layout                           : C L R Ls Rs LFE
Sampling rate                            : 48.0 kHz
Frame rate                               : 93.750 FPS (512 SPF)
Bit depth                                : 24 bits
Compression mode                         : Lossless
Stream size                              : 2.68 GiB (28%)
Language                                 : English
Default                                  : Yes
Forced                                   : No

Text #1
ID                                       : 3
Format                                   : UTF-8
Codec ID                                 : S_TEXT/UTF8
Codec ID/Info                            : UTF-8 Plain Text
Duration                                 : 1 h 33 min
Bit rate                                 : 54 b/s
Count of elements                        : 1217
Stream size                              : 37.0 KiB (0%)
Language                                 : English
Default                                  : No
Forced                                   : No

Text #2
ID                                       : 4
Format                                   : PGS
Muxing mode                              : zlib
Codec ID                                 : S_HDMV/PGS
Codec ID/Info                            : Picture based subtitle format used on BDs/HD-DVDs
Duration                                 : 1 h 35 min
Bit rate                                 : 37.8 kb/s
Count of elements                        : 2883
Stream size                              : 25.8 MiB (0%)
Language                                 : English
Default                                  : Yes
Forced                                   : No

Menu
00:00:00.000                             : Chapter 01
00:06:29.139                             : Chapter 02
00:14:19.776                             : Chapter 03
00:20:15.131                             : Chapter 04
00:27:29.231                             : Chapter 05
00:35:01.391                             : Chapter 06
00:39:45.592                             : Chapter 07
00:46:34.625                             : Chapter 08
00:50:51.799                             : Chapter 09
00:54:25.512                             : Chapter 10
01:02:04.179                             : Chapter 11
01:05:08.238                             : Chapter 12
01:09:47.058                             : Chapter 13
01:17:42.658                             : Chapter 14
01:22:19.518                             : Chapter 15
01:30:30.175                             : Chapter 16

3c1a8a445490d7f41361c924e630f100.png

[/url]5db6734ff941849ef9805c4e7289224a.png

[/url]95594dcc331bbd5ea5979a81cf57693f.png

[/url]



                                                                                                                                                                                                        
                                                                                                                                                                                                                                                                                                                                                                                                                                                                                                                                                                                                                                                                                                                                                                                                                                                        
96f0f38da71fd3f3420f01ff15bca23d.torrent (47.64 KB, 下载次数: 0)

回复

使用道具 举报

小黑屋|西西论坛

本网站所有资源来自网络,如无意中侵犯了您的权益,请发邮件至 [email protected],立即清除相关链接

GMT+8, 2021-6-14 23:37 , Processed in 0.063535 second(s), 17 queries .

Powered by Discuz! X3.2

© 2001-2013 Comsenz Inc.

快速回复 返回顶部 返回列表