西西论坛

 找回密码
 立即注册
搜索

混沌行走/噪反 Chaos.Walking.2021.1080p.BluRay.x264.TrueHD.7.1.Atmos-MT 10.74GB . ...

[复制链接]
admin 发表于 2021-5-15 17:11:33 | 显示全部楼层 |阅读模式
混沌行走/噪反 Chaos.Walking.2021.1080p.BluRay.x264.TrueHD.7.1.Atmos-MT 10.74GB                                                                                                                                                                                                                                                                                                                                                                                                                                                                                                                                        -->
帖子完整标题:混沌行走/噪反 Chaos.Walking.2021.1080p.BluRay.x264.TrueHD.7.1.Atmos-MT 10.74GB



28560df2ab9a02cf4a5c57e7d0523ef1.jpg

[/url]

◎译  名 混沌行走/噪反(台)/混沌漫步/读心叛变(港)
◎片  名 Chaos Walking
◎年  代 2021
◎产  地 美国,加拿大
◎类  别 动作 / 科幻 / 冒险
◎语  言 英语
◎上映日期 2021(中国大陆) / 2021-03-05(美国)
◎豆瓣评分 5.3/10 from 2840 users
◎豆瓣链接 
◎片  长 109分钟
◎导  演 道格·里曼 Doug Liman
◎编  剧 帕特里克·内斯 Patrick Ness / 克里斯托弗·D·福特 Christopher D. Ford / 林赛·比尔 Lindsey Beer / 约翰·李·汉考克 John Lee Hancock / 加里·斯皮内利 Gary Spinelli / 安德鲁·戈特利布 Andrew Gottlieb / 大卫·罗森 David Rosen
◎主  演 汤姆·赫兰德 Tom Holland
       黛西·雷德利 Daisy Ridley
       德米安·比齐尔 Demián Bichir
       大卫·奥伊罗 David Oyelowo
       科特·萨特 Kurt Sutter
       辛西娅·艾莉佛 Cynthia Erivo
       贝瑟妮·安妮·林德 Bethany Anne Lind
       麦斯·米科尔森 Mads Mikkelsen
       尼克·乔纳斯 Nick Jonas
       雷·迈克金农 Ray McKinnon
       文森特·莱克莱尔 Vincent Leclerc
       布兰·克洛卡雷尔 Blane Crockarell
       蒂龙·本斯金 Tyrone Benskin
       弗兰克·方丹 Frank Fontaine
       帕特里克·加洛 Patrick Garrow
       玛丽莲·迪恩-罗比齐 Mylène Dinh-Robic
       朱利安·瑞钦斯 Julian Richings
       迈克尔·戴森 Michael Dyson
       马克斯韦尔·麦卡比-洛克斯 Maxwell McCabe-Lokos
       迈克尔·亚穆什 Michael Yarmush
       布莱恩·亚历山大 Brian Alexander
       奥妮克·阿德莉 Olunike Adeliyi
       克劳迪娅·贝索 Claudia Besso
       奥斯卡·贾恩那达 óscar Jaenada
       塔拉·尼科迪莫 Tara Nicodemo
       哈里森·奥斯特菲尔德 Harrison Osterfield
       兰博基尼 Lamborghini
       维斯顿 Wiston

◎标  签 科幻 | 美国 | 2021 | 冒险 | 小说改编 | 青春 | 反乌托邦 | 剧情

◎简  介

  人类在与地球相似的遥远外星建立了新家园,但这个星球上却有一种病毒,男人感染后可以听到其他人和动物的心声,每个男人脑子里的想法都能被他人听到,人与人之间不存在隐私,新星球上的普伦提司镇的男人们就不堪忍受自己的想法被人听见。
  
  托德·赫维特(汤姆·赫兰德 饰)是出生于这座小镇的 男孩,他的认知中小镇没有女人是因为该星球土著居民蓝光兽家园被人类侵犯时故意让人类感染了噪音病毒,他们还杀光了所有女性。托德对此深信不疑,直到他遇到一个女孩。
  
  托德在小镇附近的森林里遇到了一个叫维奥拉(黛西·雷德利 饰)的女孩,她来自遥远的地球,她的飞船因故坠毁在森林里,普伦提司镇的镇长在得知这个消息后立刻展开对他俩的追杀,托德为了保护女孩维奥拉只好一起出逃,开始了一段他意想不到且危机重重的星球冒险。
Video
ID                                       : 1
Format                                   : AVC
Format/Info                              : Advanced Video Codec
Format profile                           :
Format settings                          : CABAC / 5 Ref Frames
Format settings, CABAC                   : Yes
Format settings, Reference frames        : 5 frames
Codec ID                                 : V_MPEG4/ISO/AVC
Duration                                 : 1 h 48 min
Bit rate                                 : 8 980 kb/s
Width                                    : 1 920 pixels
Height                                   : 804 pixels
Display aspect ratio                     : 2.40:1
Frame rate mode                          : Constant
Frame rate                               : 23.976 (24000/1001/189150) FPS
Color space                              : YUV
Chroma subsampling                       : 4:2:0
Bit depth                                : 8 bits
Scan type                                : Progressive
Bits/(Pixel*Frame)                       : 0.243
Stream size                              : 6.83 GiB (64%)
Writing library                          : x264 core 157 r2938 2b00a84  Mod
Encoding settings                        : cabac=1 / ref=5 / deblock=1:-3:-3 / analyse=0x3:0x133 / me=umh / subme=10 / psy=1 / psy_rd=1.05:0.00 / mixed_ref=1 / me_range=32 / chroma_me=1 / trellis=2 / 8x8dct=1 / cqm=0 / deadzone=21,11 / fast_pskip=0 / chroma_qp_offset=-2 / threads=12 / lookahead_threads=2 / sliced_threads=0 / nr=0 / decimate=0 / interlaced=0 / bluray_compat=0 / constrained_intra=0 / bframes=8 / b_pyramid=2 / b_adapt=2 / b_bias=0 / direct=3 / weightb=1 / open_gop=0 / weightp=2 / keyint=250 / keyint_min=24 / scenecut=40 / intra_refresh=0 / rc_lookahead=250 / rc=crf / mbtree=0 / crf=16.8 / qcomp=0.60 / qpmin=0 / qpmax=69 / qpstep=4 / vbv_maxrate=62500 / vbv_bufsize=78125 / crf_max=0.0 / nal_hrd=none / filler=0 / ip_ratio=1.30 / pb_ratio=1.20 / aq=3:0.80
Language                                 : English
Default                                  : Yes
Forced                                   : No
Color range                              : Limited
Color primaries                          : BT.709
Matrix coefficients                      : BT.709

Audio #1
ID                                       : 2
Format                                   : MLP FBA 16-ch
Format/Info                              : Meridian Lossless Packing FBA with 16-channel presentation
Commercial name                          : Dolby TrueHD with Dolby Atmos
Codec ID                                 : A_TRUEHD
Duration                                 : 1 h 48 min
Bit rate mode                            : Variable
Bit rate                                 : 4 405 kb/s
Maximum bit rate                         : 6 912 kb/s
Channel(s)                               : 8 channels
Channel layout                           : L R C LFE Ls Rs Lb Rb
Sampling rate                            : 48.0 kHz
Frame rate                               : 1 200.000 FPS (40 SPF)
Compression mode                         : Lossless
Stream size                              : 3.35 GiB (31%)
Language                                 : English
Default                                  : Yes
Forced                                   : No
Number of dynamic objects                : 11
Bed channel count                        : 1 channel
Bed channel configuration                : LFE

Audio #2
ID                                       : 3
Format                                   : AC-3
Format/Info                              : Audio Coding 3
Commercial name                          : Dolby Digital
Codec ID                                 : A_AC3
Duration                                 : 1 h 48 min
Bit rate mode                            : Constant
Bit rate                                 : 640 kb/s
Channel(s)                               : 6 channels
Channel layout                           : L R C LFE Ls Rs
Sampling rate                            : 48.0 kHz
Frame rate                               : 31.250 FPS (1536 SPF)
Compression mode                         : Lossy
Stream size                              : 499 MiB (5%)
Language                                 : English
Service kind                             : Complete Main
Default                                  : No
Forced                                   : No

Text #1
ID                                       : 4
Format                                   : UTF-8
Codec ID                                 : S_TEXT/UTF8
Codec ID/Info                            : UTF-8 Plain Text
Duration                                 : 1 h 37 min
Bit rate                                 : 53 b/s
Count of elements                        : 1453
Stream size                              : 38.1 KiB (0%)
Title                                    : SRT
Language                                 : English
Default                                  : Yes
Forced                                   : No

Text #2
ID                                       : 5
Format                                   : PGS
Muxing mode                              : zlib
Codec ID                                 : S_HDMV/PGS
Codec ID/Info                            : Picture based subtitle format used on BDs/HD-DVDs
Duration                                 : 1 h 37 min
Bit rate                                 : 41.8 kb/s
Count of elements                        : 3443
Stream size                              : 29.2 MiB (0%)
Language                                 : English
Default                                  : No
Forced                                   : No

Menu
00:00:00.000                             : Chapter 01
00:05:16.858                             : Chapter 02
00:13:20.550                             : Chapter 03
00:20:18.634                             : Chapter 04
00:27:39.867                             : Chapter 05
00:35:54.110                             : Chapter 06
00:39:41.254                             : Chapter 07
00:45:45.409                             : Chapter 08
00:51:22.204                             : Chapter 09
00:56:34.558                             : Chapter 10
01:01:40.363                             : Chapter 11
01:07:13.446                             : Chapter 12
01:15:41.996                             : Chapter 13
01:22:30.821                             : Chapter 14
01:30:43.938                             : Chapter 15
01:36:45.800                             : Chapter 16

dc7dfc9e6d3f64381abca6f2af1f1367.png

[/url]7e7443bf3d58b827e157d8868d29020b.png

[/url]bc6dd69abfd10dadb04d4d626595ad6f.png

[/url]



                                                                                                                                                                                                        
                                                                                                                                                                                                                                                                                                                                                                                                                                                                                                                                                                                                                                                                                                                                                                                                                                                        
64bf52b9499ef8e2f72f88ed111827c6.torrent (54.32 KB, 下载次数: 0)

回复

使用道具 举报

小黑屋|西西论坛

本网站所有资源来自网络,如无意中侵犯了您的权益,请发邮件至 [email protected],立即清除相关链接

GMT+8, 2021-6-14 22:06 , Processed in 0.062788 second(s), 17 queries .

Powered by Discuz! X3.2

© 2001-2013 Comsenz Inc.

快速回复 返回顶部 返回列表