西西论坛

 找回密码
 立即注册
搜索

龙之心/屠龙记 Dragonheart.1996.REMASTERED.1080p.BluRay.x264-GUACAMOLE 15.67GB .. ...

[复制链接]
admin 发表于 2021-5-14 09:45:04 | 显示全部楼层 |阅读模式
龙之心/屠龙记 Dragonheart.1996.REMASTERED.1080p.BluRay.x264-GUACAMOLE 15.67GB                                                                                                                                                                                                                                                                                                                                                                                                                                                                                                                                        -->
帖子完整标题:龙之心/屠龙记 Dragonheart.1996.REMASTERED.1080p.BluRay.x264-GUACAMOLE 15.67GB



29ade92e941bb96befdda4b8d2a0c6a7.jpg

[/url]

◎译  名 龙之心/屠龙记/魔幻屠龙/魔龙传奇/龙心国王
◎片  名 DragonHeart
◎年  代 1996
◎产  地 美国
◎类  别 剧情 / 动作 / 奇幻 / 冒险
◎语  言 英语
◎上映日期 1996-05-31(美国)
◎IMDb评分  6.5/10 from 92055 users
◎IMDb链接  
◎豆瓣评分 6.9/10 from 2622 users
◎豆瓣链接 
◎片  长 103分钟
◎导  演 罗伯·科恩 Rob Cohen
◎编  剧 查尔斯·爱德华·波格 Charles Edward Pogue / 帕特里克·里德·约翰逊 Patrick Read Johnson
◎主  演 丹尼斯·奎德 Dennis Quaid
       大卫·休里斯 David Thewlis
       皮特·波斯尔思韦特 Pete Postlethwaite
       迪娜·迈耶 Dina Meyer
       詹森·艾萨克 Jason Isaacs
       布莱恩·汤普森 Brian Thompson
       李·奥克斯 Lee Oakes
       朱莉·克里斯蒂 Julie Christie
       约翰·吉尔古德 John Gielgud

◎标  签 魔幻 | 奇幻 | 美国 | 美国电影 | 1996 | 肖恩·康纳利 | 动作 | 电影

◎简  介

  一次意外中,王子爱侬(大卫·休里斯 David Thewlis 饰)的心脏受到了致命伤害,为了挽救王子的性命,一条龙献出了自己的半颗心脏。起死回生后的爱侬性情大变,凶恶又残暴,身为王子的剑术老师,伯温(丹尼斯·奎德 Dennis Quaid 饰)认为造成这一改变的罪魁祸首是王子的那一半龙心,为了帮助王子找回心性,爱侬决定不惜一切代价,找到拥有另一半心脏的龙。
  
  一转眼十年过去,死在伯温手下的龙不计其数,最终,他遇见了一直在寻找的宿敌,一人一龙之间却产生了深厚的友谊。渐渐的,伯温发现,爱侬的残暴和龙心无关,系他的本性,得知了这一真相的伯温同旅途中认识的卡拉(戴安· 梅尔 Dina Meyer 饰)一起,加入到了推翻爱侬暴政的起义当中去。

◎获奖情况

  第69届奥斯卡金像奖 ?(1997)
  最佳视觉效果(提名) 斯科特·斯奎尔斯?/?菲尔蒂贝特?/?詹姆斯·斯特劳斯?/?基特·韦斯特
Video
ID                                       : 1
Format                                   : AVC
Format/Info                              : Advanced Video Codec
Format profile                           :
Format settings                          : CABAC / 5 Ref Frames
Format settings, CABAC                   : Yes
Format settings, Reference frames        : 5 frames
Codec ID                                 : V_MPEG4/ISO/AVC
Duration                                 : 1 h 42 min
Bit rate                                 : 16.9 Mb/s
Width                                    : 1 920 pixels
Height                                   : 816 pixels
Display aspect ratio                     : 2.35:1
Frame rate mode                          : Constant
Frame rate                               : 23.976 (24000/1001/189150) FPS
Color space                              : YUV
Chroma subsampling                       : 4:2:0
Bit depth                                : 8 bits
Scan type                                : Progressive
Bits/(Pixel*Frame)                       : 0.451
Stream size                              : 12.2 GiB (78%)
Writing library                          : x264 core 163 r3059 b684ebe
Encoding settings                        : cabac=1 / ref=5 / deblock=1:-3:-3 / analyse=0x3:0x133 / me=umh / subme=9 / psy=1 / psy_rd=1.00:0.00 / mixed_ref=1 / me_range=16 / chroma_me=1 / trellis=2 / 8x8dct=1 / cqm=0 / deadzone=21,11 / fast_pskip=0 / chroma_qp_offset=-2 / threads=24 / lookahead_threads=2 / sliced_threads=0 / nr=0 / decimate=1 / interlaced=0 / bluray_compat=0 / constrained_intra=0 / bframes=3 / b_pyramid=2 / b_adapt=2 / b_bias=0 / direct=3 / weightb=1 / open_gop=0 / weightp=2 / keyint=250 / keyint_min=23 / scenecut=40 / intra_refresh=0 / rc_lookahead=60 / rc=crf / mbtree=1 / crf=19.5 / qcomp=0.60 / qpmin=0 / qpmax=69 / qpstep=4 / ip_ratio=1.40 / aq=3:0.60
Default                                  : Yes
Forced                                   : No
Color range                              : Limited
Matrix coefficients                      : BT.709

Audio #1
ID                                       : 2
Format                                   : MLP FBA 16-ch
Format/Info                              : Meridian Lossless Packing FBA with 16-channel presentation
Commercial name                          : Dolby TrueHD with Dolby Atmos
Codec ID                                 : A_TRUEHD
Duration                                 : 1 h 42 min
Bit rate mode                            : Variable
Bit rate                                 : 3 986 kb/s
Maximum bit rate                         : 5 619 kb/s
Channel(s)                               : 8 channels
Channel layout                           : L R C LFE Ls Rs Lb Rb
Sampling rate                            : 48.0 kHz
Frame rate                               : 1 200.000 FPS (40 SPF)
Compression mode                         : Lossless
Delay relative to video                  : 1 s 1 ms
Stream size                              : 2.86 GiB (18%)
Language                                 : English
Default                                  : Yes
Forced                                   : No
Number of dynamic objects                : 13
Bed channel count                        : 1 channel
Bed channel configuration                : LFE

Audio #2
ID                                       : 3
Format                                   : AC-3
Format/Info                              : Audio Coding 3
Commercial name                          : Dolby Digital
Format settings                          : Dolby Surround EX
Codec ID                                 : A_AC3
Duration                                 : 1 h 42 min
Bit rate mode                            : Constant
Bit rate                                 : 640 kb/s
Channel(s)                               : 6 channels
Channel layout                           : L R C LFE Ls Rs
Sampling rate                            : 48.0 kHz
Frame rate                               : 31.250 FPS (1536 SPF)
Compression mode                         : Lossy
Delay relative to video                  : 1 s 1 ms
Stream size                              : 471 MiB (3%)
Language                                 : English
Service kind                             : Complete Main
Default                                  : No
Forced                                   : No

Audio #3
ID                                       : 4
Format                                   : AAC LC
Format/Info                              : Advanced Audio Codec Low Complexity
Codec ID                                 : A_AAC-2
Duration                                 : 1 h 42 min
Bit rate                                 : 96.0 kb/s
Channel(s)                               : 2 channels
Channel layout                           : L R
Sampling rate                            : 48.0 kHz
Frame rate                               : 46.875 FPS (1024 SPF)
Compression mode                         : Lossy
Delay relative to video                  : 9 ms
Stream size                              : 71.0 MiB (0%)
Language                                 : English
Default                                  : No
Forced                                   : No

Text #1
ID                                       : 5
Format                                   : PGS
Muxing mode                              : zlib
Codec ID                                 : S_HDMV/PGS
Codec ID/Info                            : Picture based subtitle format used on BDs/HD-DVDs
Duration                                 : 1 h 35 min
Bit rate                                 : 26.0 kb/s
Count of elements                        : 1802
Stream size                              : 17.8 MiB (0%)
Title                                    : Vobsubs
Language                                 : English
Default                                  : No
Forced                                   : No

Text #2
ID                                       : 6
Format                                   : PGS
Muxing mode                              : zlib
Codec ID                                 : S_HDMV/PGS
Codec ID/Info                            : Picture based subtitle format used on BDs/HD-DVDs
Duration                                 : 1 h 35 min
Bit rate                                 : 28.7 kb/s
Count of elements                        : 2012
Stream size                              : 19.7 MiB (0%)
Title                                    : SDH
Language                                 : English
Default                                  : No
Forced                                   : No

Text #3
ID                                       : 7
Format                                   : PGS
Muxing mode                              : zlib
Codec ID                                 : S_HDMV/PGS
Codec ID/Info                            : Picture based subtitle format used on BDs/HD-DVDs
Duration                                 : 1 h 36 min
Bit rate                                 : 61.8 kb/s
Count of elements                        : 2477
Stream size                              : 42.8 MiB (0%)
Title                                    : Commentary
Language                                 : English
Default                                  : No
Forced                                   : No

Text #4
ID                                       : 8
Format                                   : PGS
Muxing mode                              : zlib
Codec ID                                 : S_HDMV/PGS
Codec ID/Info                            : Picture based subtitle format used on BDs/HD-DVDs
Duration                                 : 1 h 35 min
Bit rate                                 : 33.3 kb/s
Count of elements                        : 2013
Stream size                              : 22.9 MiB (0%)
Title                                    : Vobsubs
Language                                 : German
Default                                  : No
Forced                                   : No

Text #5
ID                                       : 9
Format                                   : PGS
Muxing mode                              : zlib
Codec ID                                 : S_HDMV/PGS
Codec ID/Info                            : Picture based subtitle format used on BDs/HD-DVDs
Duration                                 : 1 h 36 min
Bit rate                                 : 64.5 kb/s
Count of elements                        : 2498
Stream size                              : 44.7 MiB (0%)
Title                                    : SDH
Language                                 : German
Default                                  : No
Forced                                   : No

Text #6
ID                                       : 10
Format                                   : PGS
Muxing mode                              : zlib
Codec ID                                 : S_HDMV/PGS
Codec ID/Info                            : Picture based subtitle format used on BDs/HD-DVDs
Duration                                 : 12 min 51 s
Bit rate                                 : 215 b/s
Count of elements                        : 4
Stream size                              : 20.3 KiB (0%)
Title                                    : Commentary
Language                                 : German
Default                                  : No
Forced                                   : No

Text #7
ID                                       : 11
Format                                   : PGS
Muxing mode                              : zlib
Codec ID                                 : S_HDMV/PGS
Codec ID/Info                            : Picture based subtitle format used on BDs/HD-DVDs
Duration                                 : 1 h 35 min
Bit rate                                 : 30.9 kb/s
Count of elements                        : 1800
Stream size                              : 21.2 MiB (0%)
Title                                    : Forced
Language                                 : German
Default                                  : No
Forced                                   : No

Menu
00:00:00.000                             : en:00:00:00.000
00:04:01.324                             : en:00:04:01.324
00:09:20.810                             : en:00:09:20.810
00:15:07.532                             : en:00:15:07.532
00:17:26.837                             : en:00:17:26.837
00:22:06.909                             : en:00:22:06.909
00:24:55.619                             : en:00:24:55.619
00:28:16.945                             : en:00:28:16.945
00:32:33.285                             : en:00:32:33.285
00:35:47.187                             : en:00:35:47.187
00:40:20.752                             : en:00:40:20.752
00:45:38.402                             : en:00:45:38.402
00:48:54.598                             : en:00:48:54.598
00:54:50.078                             : en:00:54:50.078
00:58:23.125                             : en:00:58:23.125
01:04:52.931                             : en:01:04:52.931
01:10:05.326                             : en:01:10:05.326
01:15:01.997                             : en:01:15:01.997
01:20:43.756                             : en:01:20:43.756
01:25:45.432                             : en:01:25:45.432
01:30:43.355                             : en:01:30:43.355
01:36:53.933                             : en:01:36:53.933

8af1784553dfc7bb00de9c14385ec26f.jpg

[/url]



                                                                                                                                                                                                        
                                                                                                                                                                                                                                                                                                                                                                                                                                                                                                                                                                                                                                                                                                                                                                                                                                                        
1099f3cf21cafac0954ea32f11e512bf.torrent (79.1 KB, 下载次数: 0)

回复

使用道具 举报

小黑屋|西西论坛

本网站所有资源来自网络,如无意中侵犯了您的权益,请发邮件至 [email protected],立即清除相关链接

GMT+8, 2021-6-13 13:45 , Processed in 0.093056 second(s), 17 queries .

Powered by Discuz! X3.2

© 2001-2013 Comsenz Inc.

快速回复 返回顶部 返回列表