西西论坛

 找回密码
 立即注册
搜索

[纯净版][BT下载][踢出一片天][WEB-MKV/9.09GB][国语中字][4K][Vampire][无水印高码版 ...

[复制链接]
admin 发表于 2023-8-29 17:56:48 | 显示全部楼层 |阅读模式
-->61117cc79fe7637d36afc462e9b54592.jpg




◎译  名 Ti Chu Yi Pian Tian
◎片  名 踢出一片天 / 龙拳小子第二部
◎年  代 2023
◎产  地 中国大陆
◎类  别 剧情 / 家庭
◎语  言 汉语普通话
◎上映日期 2023-08-28(中国大陆)
◎豆瓣评分 0/10 from 0 users
◎豆瓣链接 https://movie.douban.com/subject/36530204
◎导  演 陶声 Sheng Tao
◎主  演 林秋楠 Qiunan Lin
       张泽禹 Zeyu Zhang
       梁家仁 Ka-Yan Leung
       徐少强 Norman Chu


◎简  介


  本片主要讲述了跆拳道少年歪歪在成长的过程中,面对梦想,面对自己,做出的抉择和坚持。他常常在夜里会做一个关于惩恶扬善的英雄梦,以至于在每晚的梦中他都是那个超级英雄。但现实和梦的差距总让他有深深的失落感,在现实中他的孤僻如同阴云笼罩,这一切直到他学习了跆拳道后,歪歪有了一个巨大的蜕变,懂得了坚持和永不言败,终于成为了那个梦境及现实中真正的超级英雄。


General


Complete name               : 踢出一片天.Ti.Chu.Yi.Pian.Tian.2023.4K.Higbit.WEB-DL.HEVC.DDP2.0-Vampire.mkv
Format                      : Matroska
Format version              : Version 4
File size                   : 9.10 GiB
Duration                    : 1 h 35 min
Overall bit rate            : 13.6 Mb/s
Movie name                  : 踢出一片天.Ti.Chu.Yi.Pian.Tian
Comment                     : 警告:严禁将任何作品用于商业性质活动,所有制作作品仅限于测试宽带之用,请于下载后24小时内删除。本人不承担任何法律后果!喜欢本作品请购买正版!!!
ARTIST                      : Vampire制作分享作品
DATE_RECORDED               : 2023
GENRE                       : 中国大陆


Video
ID                          : 1
Format                      : HEVC
Format/Info                 : High Efficiency Video Coding
Format profile              : Main@L5@Main
Codec ID                    : V_MPEGH/ISO/HEVC
Duration                    : 1 h 35 min
Bit rate                    : 13.5 Mb/s
Width                       : 3 840 pixels
Height                      : 1 448 pixels
Display aspect ratio        : 2.652
Frame rate mode             : Constant
Frame rate                  : 25.000 FPS
Color space                 : YUV
Chroma subsampling          : 4:2:0
Bit depth                   : 8 bits
Bits/(Pixel*Frame)          : 0.097
Stream size                 : 9.03 GiB (99%)
Title                       : Vampire制作分享作品
Language                    : Chinese
Default                     : No
Forced                      : No


Audio
ID                          : 2
Format                      : E-AC-3
Format/Info                 : Enhanced AC-3
Commercial name             : Dolby Digital Plus
Codec ID                    : A_EAC3
Duration                    : 1 h 35 min
Bit rate mode               : Constant
Bit rate                    : 96.0 kb/s
Channel(s)                  : 2 channels
Channel layout              : L R
Sampling rate               : 48.0 kHz
Frame rate                  : 31.250 FPS (1536 SPF)
Compression mode            : Lossy
Stream size                 : 65.5 MiB (1%)
Title                       : 汉语普通话
Language                    : Chinese
Service kind                : Complete Main
Default                     : No
Forced                      : No


Text
ID                          : 3
Format                      : UTF-8
Codec ID                    : S_TEXT/UTF8
Codec ID/Info               : UTF-8 Plain Text
Duration                    : 5 s 575 ms
Bit rate                    : 242 b/s
Count of elements           : 1
Stream size                 : 169 Bytes (0%)
Title                       : 免责声明
Language                    : Chinese
Default                     : No
Forced                      : No
e7bfb6d88e5226e3fd9e70d55206fd06.jpg




本人发布的种子请使用专业BT下载工具:
UT,Bitcomet,qBittorrent,Xdown开启上传后再下载!!!
使用迅雷或网盘离线可能会没速度!!!


视频的网盘资源均修改了视频后缀(如mp4或mkv)修改为.PDF,用以混淆官方视听!
并且加密了文件名,设置了独有的解压密码,请使用WinRAR解压,使用好压或其他可能会出错!!

网盘版所有压缩包下载完毕后解压第一个包即可全部解压(有些可能有解压密码),解压后自行将后缀名“PDF”修改为“mp4或者mkv”后即可正常播放!!!

已完结剧集不再分集打包上传,整体打包后分卷,无法单独下载某一集,需要全部下载后一起解压,敬请知晓!!!
请各位下载的坛友先保存至自己的网盘,然后再进行下载!
不要直接在线观看或者解压,否则会很快被网盘官方发觉并和谐!!

网盘版资源一旦和谐,皆不会免费补档,请谨慎举报资源!!!


请下载完成的朋友自觉做种一段时间,小水管出种不易,且下且珍惜,谢谢!!!
                                                                                                                                                                                                        
                                                                                                                                                                                                                                                                                                                                                                                                                                                                                                                                                                                                                                                                                                                                                                                                                                                        
efe3719ac7fdd48ab7782f4c421126f6.rar (886.29 KB, 下载次数: 0)

回复

使用道具 举报

小黑屋|西西论坛

本网站所有资源来自网络,如无意中侵犯了您的权益,请发邮件至 [email protected],立即清除相关链接

GMT+8, 2024-7-18 21:12 , Processed in 0.096143 second(s), 26 queries .

Powered by Discuz! X3.2

© 2001-2013 Comsenz Inc.

快速回复 返回顶部 返回列表