西西论坛

 找回密码
 立即注册
搜索

[纯净版][BT下载][共助2:国际/机密同盟2][WEB-MP4/4.82GB][韩语中字][1080P][Vampire ...

[复制链接]
admin 发表于 2022-10-31 20:14:27 | 显示全部楼层 |阅读模式
-->74558a62a93fd3989464d966fdd8b8b0.jpg




◎译  名 共助2:国际 / 机密同盟2(台) / 共助2:国际化 / 秘密任务2:International (港) / Confidential Assignment 2: International / Confidential Assignment 2
◎片  名 공조2:인터내셔날
◎年  代 2022
◎产  地 韩国
◎类  别 动作
◎语  言 韩语
◎上映日期 2022-09-07(韩国)
◎IMDb链接
◎豆瓣评分 8.0/10 (706人评价)
◎豆瓣链接 https://movie.douban.com/subject/35240874
◎片  长 128分钟
◎导  演 梨晳勳  Seok-hoon Lee (id:1319566)
◎编  剧 梨晳勳  Seok-hoon Lee (id:1319566)
◎演  员 玄彬 Hyun Bin (id:1028380)
       柳海真 Hae-jin Yu (id:1312810)
       林允儿 Yoona (id:1275439)
       丹尼尔·海尼 Daniel Henney (id:1036460)
       陈善圭 Seon-kyu Jin (id:1382194)
       林成宰 Sungjae Im (id:1444305)
       郑允荷 Jung Yun-Ha (id:1478009)


◎简  介


  为了追捕藏匿在韩国的国际犯罪组织,北韩刑警任铁零(玄彬 饰)投入新的共同搜查任务。而韩国刑警姜镇泰(柳海真 饰)则在搜查中因发生失误而被调至网络搜查队,为了回到广域搜查队,镇泰自愿担任铁零的伙伴。再次遇见铁零的敏英(林允儿 饰)又重燃对他的爱意。然而,铁哲与镇泰对彼此心存怀疑,但仍展开十分像样的搜查行动。就在他们终于找到犯罪组织首脑张明俊(陈善圭 饰)的藏身之处时,来自美国的FBI探员杰克(丹尼尔·海尼 饰)突然出现在他们面前,依旧令人辛酸的韩国刑警;一样杰出的北韩刑警;来自FBI的美国刑警,因各自的目的而团结一心的他们,将展开刺激的共同搜查行动。


General


Complete name               : G:\共助2:国际.Confidential.Assignment.2.International.2022.1080P.WEB-DL.H264.AAC-Vampire.mp4
Format                      : MPEG-4
Format profile              : Base Media
Codec ID                    : isom (isom/iso2/avc1/mp41)
File size                   : 4.83 GiB
Duration                    : 2 h 8 min
Overall bit rate mode       : Variable
Overall bit rate            : 5 387 kb/s
Movie name                  : 共助2:国际.Confidential.Assignment.2.International
Album                       : 韩国电影系列
Performer                   : Vampire制作分享
Composer                    : 远鉴字幕组原创翻译
Genre                       : 韩国
Recorded date               : 2022
Cover                       : Yes
Comment                     : 警告:严禁将本人制作的任何作品用于商业性质活动,所有制作作品仅限于测试宽带之用,请于下载后24小时内删除。本人不承担任何法律后果!喜欢本作品请购买正版!!!


Video
ID                          : 1
Format                      : AVC
Format/Info                 : Advanced Video Codec
Format profile              : [email protected]
Format settings             : CABAC / 3 Ref Frames
Format settings, CABAC      : Yes
Format settings, Reference  : 3 frames
Codec ID                    : avc1
Codec ID/Info               : Advanced Video Coding
Duration                    : 2 h 8 min
Bit rate mode               : Variable
Bit rate                    : 4 995 kb/s
Maximum bit rate            : 15.0 Mb/s
Width                       : 1 920 pixels
Height                      : 1 080 pixels
Display aspect ratio        : 16:9
Frame rate mode             : Constant
Frame rate                  : 23.976 (24000/1001) FPS
Color space                 : YUV
Chroma subsampling          : 4:2:0
Bit depth                   : 8 bits
Scan type                   : Progressive
Bits/(Pixel*Frame)          : 0.100
Stream size                 : 4.48 GiB (93%)
Codec configuration box     : avcC


Audio
ID                          : 2
Format                      : AAC LC
Format/Info                 : Advanced Audio Codec Low Complexity
Codec ID                    : mp4a-40-2
Duration                    : 2 h 8 min
Bit rate mode               : Constant
Bit rate                    : 384 kb/s
Channel(s)                  : 2 channels
Channel layout              : L R
Sampling rate               : 48.0 kHz
Frame rate                  : 46.875 FPS (1024 SPF)
Compression mode            : Lossy
Stream size                 : 353 MiB (7%)
Default                     : Yes
42e1e2ab5cd275c849a02a5a6112958b.jpg


30978e6f5975f34c5f811b87fb95d3dc.jpg

4be0767080fa8e07484ec928119d69c9.jpg

372d846eda3d72c553c9c54cc48815af.jpg



本人发布的种子请使用专业BT下载工具:
UT,Bitcomet,qBittorrent,Xdown开启上传后再下载!!!
使用迅雷或网盘离线可能会没速度!!!


视频的网盘资源均修改了视频后缀(如mp4或mkv)修改为.PDF,用以混淆官方视听!
并且加密了文件名,设置了独有的解压密码,请使用WinRAR解压,使用好压或其他可能会出错!!

网盘版所有压缩包下载完毕后解压第一个包即可全部解压(有些可能有解压密码),解压后自行将后缀名“PDF”修改为“mp4或者mkv”后即可正常播放!!!

已完结剧集不再分集打包上传,整体打包后分卷,无法单独下载某一集,需要全部下载后一起解压,敬请知晓!!!
请各位下载的坛友先保存至自己的网盘,然后再进行下载!
不要直接在线观看或者解压,否则会很快被网盘官方发觉并和谐!!

网盘版资源一旦和谐,皆不会免费补档,请谨慎举报资源!!!


请下载完成的朋友自觉做种一段时间,小水管出种不易,且下且珍惜,谢谢!!!
                                                                                                                                                                                                        
                                                                                                                                                                                                                                                                                                                                                                                                                                                                                                                                                                                                                                                                                                                                                                                                                                                        
ff7a42ff86e07adf53c709a3ef057727.rar (1.25 MB, 下载次数: 0)

回复

使用道具 举报

小黑屋|西西论坛

本网站所有资源来自网络,如无意中侵犯了您的权益,请发邮件至 [email protected],立即清除相关链接

GMT+8, 2023-1-28 10:16 , Processed in 0.102466 second(s), 26 queries .

Powered by Discuz! X3.2

© 2001-2013 Comsenz Inc.

快速回复 返回顶部 返回列表