西西论坛

 找回密码
 立即注册
搜索

第二春 Percy.1971.1080p.BluRay.x264.FLAC.2.0-HANDJOB 8.68GB

[复制链接]
admin 发表于 2022-1-2 08:01:29 | 显示全部楼层 |阅读模式
第二春 Percy.1971.1080p.BluRay.x264.FLAC.2.0-HANDJOB 8.68GB                                                                                                                                                                                                                                                                                                                                                                                                                                                                                                                                        -->
帖子完整标题:第二春 Percy.1971.1080p.BluRay.x264.FLAC.2.0-HANDJOB 8.68GB





◎译  名 第二春
◎片  名 Percy
◎年  代 1971
◎产  地 英国
◎类  别 喜剧
◎语  言 英语
◎上映日期 1971
◎豆瓣评分 /10 from 0 users
◎豆瓣链接 
◎片  长 USA: 103 分钟
◎导  演 拉尔夫·托马斯 Ralph Thomas
◎编  剧 特伦斯·费利 Terence Feely / 迈克尔·帕林 Michael Palin / 休·莱奥纳德 Hugh Leonard
◎主  演 苏·劳埃德 Sue Lloyd
       T·P·麦肯纳 T.P. McKenna
       珍妮特·基 Janet Key
       赛德·海曼 Cyd Hayman
       帕特里克·莫夫 Patrick Mower
       阿德里安娜·波斯塔 Adrienne Posta
       玛格丽塔·斯科特 Margaretta Scott
       Sheila Steafel Sheila Steafel
       丽塔·韦伯 Rita Webb
       特蕾西·里德 Tracy Reed
       Charles Hodgson Charles Hodgson
       托尼·海加斯 Tony Haygarth
       Antonia Ellis Antonia Ellis
       丹霍姆·艾略特 Denholm Elliott
       布里特·艾克拉诺 Britt Ekland
       艾尔克·萨默 Elke Sommer
       汉威尔·班尼特 Hywel Bennett
       格拉汉姆·克罗登 Graham Crowden
       Ronnie Brody Ronnie Brody
       Denise Coffey Denise Coffey
       茱莉亚·福斯特 Julia Foster
       Arthur English Arthur English
       哈里·弗雷德尔 Harry Fielder
       Pauline Delaney Pauline Delaney
       乔治·贝斯特 George Best

◎标  签 英国电影 | 英国 | shortlist | kinks

◎简  介

  Edwin Antony (Hywel Bennett) is emasculated in an accident which kills a young philanderer. Doctors successfully replace his member with that of the dead man, but refuse to tell him the full story of the organ's origin. So Edwin begins a search which takes him to the philanderer's wife - and also to his many, many girlfriends... Written by Mark Doran {[email?protected]}
  
  Rather than for its plot, the film is today remembered for its soundtrack by The Kinks
Video
ID                                       : 1
Format                                   : AVC
Format/Info                              : Advanced Video Codec
Format profile                           :
Format settings                          : CABAC / 4 Ref Frames
Format settings, CABAC                   : Yes
Format settings, Reference frames        : 4 frames
Codec ID                                 : V_MPEG4/ISO/AVC
Duration                                 : 1 h 41 min
Bit rate                                 : 11.9 Mb/s
Width                                    : 1 792 pixels
Height                                   : 1 080 pixels
Display aspect ratio                     : 5:3
Frame rate mode                          : Constant
Frame rate                               : 24.000 FPS
Color space                              : YUV
Chroma subsampling                       : 4:2:0
Bit depth                                : 8 bits
Scan type                                : Progressive
Bits/(Pixel*Frame)                       : 0.256
Stream size                              : 8.43 GiB (97%)
Writing library                          : x264 core 163 r3059 b684ebe0
Encoding settings                        : cabac=1 / ref=4 / deblock=1:-3:-3 / analyse=0x3:0x133 / me=umh / subme=10 / psy=1 / psy_rd=1.00:0.00 / mixed_ref=1 / me_range=32 / chroma_me=1 / trellis=2 / 8x8dct=1 / cqm=0 / deadzone=21,11 / fast_pskip=0 / chroma_qp_offset=-2 / threads=34 / lookahead_threads=8 / sliced_threads=0 / nr=0 / decimate=0 / interlaced=0 / bluray_compat=0 / constrained_intra=0 / bframes=16 / b_pyramid=2 / b_adapt=2 / b_bias=0 / direct=3 / weightb=1 / open_gop=0 / weightp=2 / keyint=240 / keyint_min=24 / scenecut=40 / intra_refresh=0 / rc_lookahead=60 / rc=crf / mbtree=0 / crf=21.0 / qcomp=0.60 / qpmin=0 / qpmax=69 / qpstep=4 / vbv_maxrate=62500 / vbv_bufsize=78125 / crf_max=0.0 / nal_hrd=none / filler=0 / ip_ratio=1.40 / pb_ratio=1.30 / aq=2:1.00
Default                                  : Yes
Forced                                   : No
Color range                              : Limited
Color primaries                          : BT.709
Transfer characteristics                 : BT.709
Matrix coefficients                      : BT.709

Audio
ID                                       : 2
Format                                   : FLAC
Format/Info                              : Free Lossless Audio Codec
Codec ID                                 : A_FLAC
Duration                                 : 1 h 41 min
Bit rate mode                            : Variable
Bit rate                                 : 358 kb/s
Channel(s)                               : 2 channels
Channel layout                           : L R
Sampling rate                            : 48.0 kHz
Frame rate                               : 11.719 FPS (4096 SPF)
Bit depth                                : 16 bits
Compression mode                         : Lossless
Stream size                              : 259 MiB (3%)
Writing library                          : libFLAC 1.2.1 (UTC 2007-09-17)
Language                                 : English
Default                                  : Yes
Forced                                   : No

Text
ID                                       : 3
Format                                   : UTF-8
Codec ID                                 : S_TEXT/UTF8
Codec ID/Info                            : UTF-8 Plain Text
Duration                                 : 1 h 40 min
Bit rate                                 : 65 b/s
Count of elements                        : 1804
Stream size                              : 48.6 KiB (0%)
Title                                    : SDH
Language                                 : English
Default                                  : No
Forced                                   : No

Menu
00:00:00.000                             : :Chapter 1
00:05:15.667                             : :Chapter 2
00:09:12.333                             : :Chapter 3
00:16:05.792                             : :Chapter 4
00:22:29.833                             : :Chapter 5
00:28:00.917                             : :Chapter 6
00:35:01.583                             : :Chapter 7
00:43:55.625                             : :Chapter 8
00:50:29.417                             : :Chapter 9
00:56:26.458                             : :Chapter 10
01:02:24.208                             : :Chapter 11
01:07:48.833                             : :Chapter 12
01:16:30.542                             : :Chapter 13
01:25:27.833                             : :Chapter 14
01:33:26.417                             : :Chapter 15





                                                                                                                                                                                                        
                                                                                                                                                                                                                                                                                                                                                                                                                                                                                                                                                                                                                                                                                                                                                                                                                                                        
57525342bb45b861c489c08e901274e4.torrent (22.32 KB, 下载次数: 0)

回复

使用道具 举报

小黑屋|西西论坛

本网站所有资源来自网络,如无意中侵犯了您的权益,请发邮件至 [email protected],立即清除相关链接

GMT+8, 2022-6-27 04:02 , Processed in 0.137034 second(s), 17 queries .

Powered by Discuz! X3.2

© 2001-2013 Comsenz Inc.

快速回复 返回顶部 返回列表