西西论坛

 找回密码
 立即注册
搜索

蓝胡子 Bluebeard.1972.1080p.BluRay.x264.FLAC2.0-HANDJOB 10.46GB

[复制链接]
admin 发表于 2022-1-2 08:01:23 | 显示全部楼层 |阅读模式
蓝胡子 Bluebeard.1972.1080p.BluRay.x264.FLAC2.0-HANDJOB 10.46GB                                                                                                                                                                                                                                                                                                                                                                                                                                                                                                                                        -->
帖子完整标题:蓝胡子 Bluebeard.1972.1080p.BluRay.x264.FLAC2.0-HANDJOB 10.46GB



df51eab37a5bd17250273bd486bd64ff.jpg



◎译  名 蓝胡子/Barbablù
◎片  名 Bluebeard
◎年  代 1972
◎产  地 法国,意大利,西德
◎类  别 剧情 / 惊悚 / 犯罪
◎语  言 英语
◎上映日期 1972
◎豆瓣评分 7.6/10 from 534 users
◎豆瓣链接 
◎片  长 USA: 125 分钟
◎主  演 理查德·伯顿 Richard Burton
       拉蔻儿·薇芝 Raquel Welch
       维尔娜·丽丝 Virna Lisi
       卡琳·舒伯特 Karin Schubert

◎标  签 法国 | 惊悚 | 犯罪 | 恐怖 | 1972 | 意大利 | 法国电影 | 欧洲电影

◎简  介

  Baron von Sepper is an Austrian aristocrat noted for his blue-toned beard, and his appetite for beautiful wives. His latest spouse, an American beauty named Anne, discovers a vault in his castle that's filled with the frozen bodies of several beautiful women. When confronted with this slight oddity, Bluebeard explains to Anne that he found an easier alternative to divorce when he grew bored with his previous wives. In order to avoid being Bluebeard's next frozen bride, Anne must find a way to outwit her murderous hubby.
Video
ID                                       : 1
Format                                   : AVC
Format/Info                              : Advanced Video Codec
Format profile                           :
Format settings                          : CABAC / 4 Ref Frames
Format settings, CABAC                   : Yes
Format settings, Reference frames        : 4 frames
Codec ID                                 : V_MPEG4/ISO/AVC
Duration                                 : 2 h 4 min
Bit rate                                 : 11.7 Mb/s
Width                                    : 1 920 pixels
Height                                   : 1 036 pixels
Display aspect ratio                     : 1.85:1
Frame rate mode                          : Constant
Frame rate                               : 23.976 (24000/1001/189150) FPS
Color space                              : YUV
Chroma subsampling                       : 4:2:0
Bit depth                                : 8 bits
Scan type                                : Progressive
Bits/(Pixel*Frame)                       : 0.245
Stream size                              : 10.2 GiB (97%)
Writing library                          : x264 core 163 r3059 b684ebe0
Encoding settings                        : cabac=1 / ref=4 / deblock=1:-3:-3 / analyse=0x3:0x133 / me=umh / subme=10 / psy=1 / psy_rd=1.00:0.00 / mixed_ref=1 / me_range=32 / chroma_me=1 / trellis=2 / 8x8dct=1 / cqm=0 / deadzone=21,11 / fast_pskip=0 / chroma_qp_offset=-2 / threads=32 / lookahead_threads=8 / sliced_threads=0 / nr=0 / decimate=0 / interlaced=0 / bluray_compat=0 / constrained_intra=0 / bframes=16 / b_pyramid=2 / b_adapt=2 / b_bias=0 / direct=3 / weightb=1 / open_gop=0 / weightp=2 / keyint=240 / keyint_min=24 / scenecut=40 / intra_refresh=0 / rc_lookahead=60 / rc=crf / mbtree=0 / crf=22.0 / qcomp=0.60 / qpmin=0 / qpmax=69 / qpstep=4 / vbv_maxrate=62500 / vbv_bufsize=78125 / crf_max=0.0 / nal_hrd=none / filler=0 / ip_ratio=1.40 / pb_ratio=1.30 / aq=2:1.00
Default                                  : Yes
Forced                                   : No
Color range                              : Limited
Color primaries                          : BT.709
Transfer characteristics                 : BT.709
Matrix coefficients                      : BT.709

Audio
ID                                       : 2
Format                                   : FLAC
Format/Info                              : Free Lossless Audio Codec
Codec ID                                 : A_FLAC
Duration                                 : 2 h 4 min
Bit rate mode                            : Variable
Bit rate                                 : 343 kb/s
Channel(s)                               : 2 channels
Channel layout                           : L R
Sampling rate                            : 48.0 kHz
Frame rate                               : 11.719 FPS (4096 SPF)
Bit depth                                : 16 bits
Compression mode                         : Lossless
Stream size                              : 305 MiB (3%)
Writing library                          : libFLAC 1.2.1 (UTC 2007-09-17)
Language                                 : English
Default                                  : Yes
Forced                                   : No

Text
ID                                       : 3
Format                                   : UTF-8
Codec ID                                 : S_TEXT/UTF8
Codec ID/Info                            : UTF-8 Plain Text
Duration                                 : 2 h 2 min
Bit rate                                 : 48 b/s
Count of elements                        : 1578
Stream size                              : 43.1 KiB (0%)
Title                                    : SDH
Language                                 : English
Default                                  : No
Forced                                   : No

Menu
00:00:00.000                             : :Chapter 1
00:10:15.365                             : :Chapter 2
00:20:41.323                             : :Chapter 3
00:32:47.716                             : :Chapter 4
00:40:26.799                             : :Chapter 5
00:50:52.341                             : :Chapter 6
01:00:13.860                             : :Chapter 7
01:08:33.192                             : :Chapter 8
01:23:18.577                             : :Chapter 9
01:30:12.991                             : :Chapter 10
01:39:59.660                             : :Chapter 11
01:49:05.247                             : :Chapter 12

6e1f39c021310979310c3a2436723bd0.png

[/url]1508c3379015ccc6b5ea8af5be22689f.png

[/url]0f1807fb06bc2f97dfb52e9f7c28c584.png

[/url]



                                                                                                                                                                                                        
                                                                                                                                                                                                                                                                                                                                                                                                                                                                                                                                                                                                                                                                                                                                                                                                                                                        
5e2f4c04c1badbaef59577cecb3d03a0.torrent (13.7 KB, 下载次数: 0)

回复

使用道具 举报

小黑屋|西西论坛

本网站所有资源来自网络,如无意中侵犯了您的权益,请发邮件至 [email protected],立即清除相关链接

GMT+8, 2022-6-27 03:33 , Processed in 0.119336 second(s), 17 queries .

Powered by Discuz! X3.2

© 2001-2013 Comsenz Inc.

快速回复 返回顶部 返回列表