西西论坛

 找回密码
 立即注册
搜索

鸟瞰人生/养鸟人 Bird.People.2014.FRENCH.1080p.BluRay.x264.DDP5.1-EA 14.93GB ... ...

[复制链接]
admin 发表于 2022-1-2 08:01:20 | 显示全部楼层 |阅读模式
鸟瞰人生/养鸟人 Bird.People.2014.FRENCH.1080p.BluRay.x264.DDP5.1-EA 14.93GB                                                                                                                                                                                                                                                                                                                                                                                                                                                                                                                                        -->
帖子完整标题:鸟瞰人生/养鸟人 Bird.People.2014.FRENCH.1080p.BluRay.x264.DDP5.1-EA 14.93GB



3732440f7117f5c0fabe181016efb562.jpg



◎译  名 鸟瞰人生/养鸟人
◎片  名 Bird People
◎年  代 2014
◎产  地 法国
◎类  别 剧情 / 爱情 / 奇幻
◎语  言 法语,英语,日语,粤语
◎上映日期 2014-05-19(戛纳电影节)
◎豆瓣评分 6.8/10 from 1050 users
◎豆瓣链接 
◎片  长 128分钟
◎导  演 帕斯卡尔·费兰 Pascale Ferran
◎编  剧 Guillaume Bréaud Guillaume Bréaud / 帕斯卡尔·费兰 Pascale Ferran
◎主  演 乔西·查尔斯 Josh Charles
       阿娜伊斯·德穆斯蒂埃 Ana?s Demoustier
       马修·阿马立克 Mathieu Amalric
       帕特里克·索贝尔曼 Patrick Sobelman
       罗什迪·泽姆 Roschdy Zem
       吉纳维芙亚当斯 Genevieve Adams
       拉达·米切尔 Radha Mitchell
       菲利普·杜克洛斯 Philippe DUCLOS

◎标  签 法国 | 剧情 | 奇幻 | 2014 | 法国电影 | 戛纳 | 美国 | 文艺

◎简  介

  巴黎戴高乐机场的意外滞留,让商人盖瑞(乔希·查尔斯饰演)重新审视自己匆忙奔波的生活,顿生厌倦逃离之意。同样想挣脱现实樊笼的还有宾馆清洁女工奥黛丽(阿奈斯·德穆斯捷饰演),机械重复的乏味工作让她度日如年。直到有一天,她发现自己果真肋生两翼,幻化成自由的飞鸟......

◎获奖情况

  第67届戛纳电影节 ?(2014)
  一种关注单元一种关注大奖(提名) 帕斯卡尔·费兰
Video
ID                                       : 1
Format                                   : AVC
Format/Info                              : Advanced Video Codec
Format profile                           :
Format settings                          : CABAC / 4 Ref Frames
Format settings, CABAC                   : Yes
Format settings, Reference frames        : 4 frames
Codec ID                                 : V_MPEG4/ISO/AVC
Duration                                 : 2 h 8 min
Bit rate                                 : 15.7 Mb/s
Width                                    : 1 920 pixels
Height                                   : 1 038 pixels
Display aspect ratio                     : 1.85:1
Frame rate mode                          : Constant
Frame rate                               : 24.000 FPS
Color space                              : YUV
Chroma subsampling                       : 4:2:0
Bit depth                                : 8 bits
Scan type                                : Progressive
Bits/(Pixel*Frame)                       : 0.327
Stream size                              : 14.0 GiB (94%)
Title                                    : -EA
Writing library                          : x264 core 164 r3075+55M 97d28bb t_mod_New [(8 & 10) X86_64]
Encoding settings                        : cabac=1 / ref=4 / deblock=1:-3:-3 / analyse=0x3:0x133 / me=umh / subme=10 / psy=1 / fade_compensate=0.00 / psy_rd=0.96:0.00 / mixed_ref=1 / me_range=32 / chroma_me=1 / trellis=2 / 8x8dct=1 / cqm=0 / deadzone=21,11 / fast_pskip=0 / chroma_qp_offset=-2 / threads=18 / lookahead_threads=4 / sliced_threads=0 / nr=0 / decimate=0 / interlaced=0 / bluray_compat=0 / constrained_intra=0 / fgo=0 / bframes=11 / b_pyramid=2 / b_adapt=2 / b_bias=0 / direct=3 / weightb=1 / open_gop=0 / weightp=2 / keyint=240 / keyint_min=24 / scenecut=40 / intra_refresh=0 / rc_lookahead=60 / rc=crf / mbtree=0 / crf=18.3500 / qcomp=0.65 / qpmin=0:0:0 / qpmax=69:69:69 / qpstep=4 / vbv_maxrate=62500 / vbv_bufsize=78125 / crf_max=0.0 / nal_hrd=none / filler=0 / ip_ratio=1.35 / pb_ratio=1.25 / aq=3:0.80 / aq-sensitivity=10.00 / aq-factor=1.00:1.00:1.00 / aq2=0 / aq3=0
Language                                 : French
Default                                  : Yes
Forced                                   : No
Color range                              : Limited
Color primaries                          : BT.709
Transfer characteristics                 : BT.709
Matrix coefficients                      : BT.709

Audio
ID                                       : 2
Format                                   : E-AC-3
Format/Info                              : Enhanced AC-3
Commercial name                          : Dolby Digital Plus
Codec ID                                 : A_EAC3
Duration                                 : 2 h 8 min
Bit rate mode                            : Constant
Bit rate                                 : 1 023 kb/s
Channel(s)                               : 6 channels
Channel layout                           : L R C LFE Ls Rs
Sampling rate                            : 48.0 kHz
Frame rate                               : 93.750 FPS (512 SPF)
Compression mode                         : Lossy
Stream size                              : 937 MiB (6%)
Language                                 : French
Service kind                             : Complete Main
Default                                  : Yes
Forced                                   : No

Text #1
ID                                       : 3
Format                                   : UTF-8
Codec ID                                 : S_TEXT/UTF8
Codec ID/Info                            : UTF-8 Plain Text
Duration                                 : 2 h 2 min
Bit rate                                 : 11 b/s
Count of elements                        : 391
Stream size                              : 9.98 KiB (0%)
Title                                    : srt [Forced]
Language                                 : English
Default                                  : Yes
Forced                                   : No

Text #2
ID                                       : 4
Format                                   : UTF-8
Codec ID                                 : S_TEXT/UTF8
Codec ID/Info                            : UTF-8 Plain Text
Duration                                 : 2 h 2 min
Bit rate                                 : 25 b/s
Count of elements                        : 924
Stream size                              : 23.3 KiB (0%)
Title                                    : srt [Full]
Language                                 : English
Default                                  : No
Forced                                   : No

Text #3
ID                                       : 5
Format                                   : PGS
Muxing mode                              : zlib
Codec ID                                 : S_HDMV/PGS
Codec ID/Info                            : Picture based subtitle format used on BDs/HD-DVDs
Duration                                 : 1 h 55 min
Bit rate                                 : 7 039 b/s
Count of elements                        : 820
Stream size                              : 5.81 MiB (0%)
Title                                    : sup [Forced]
Language                                 : French
Default                                  : No
Forced                                   : No

Text #4
ID                                       : 6
Format                                   : PGS
Muxing mode                              : zlib
Codec ID                                 : S_HDMV/PGS
Codec ID/Info                            : Picture based subtitle format used on BDs/HD-DVDs
Duration                                 : 2 h 7 min
Bit rate                                 : 14.8 kb/s
Count of elements                        : 2104
Stream size                              : 13.6 MiB (0%)
Title                                    : sup HoH
Language                                 : French
Default                                  : No
Forced                                   : No

Menu
00:00:00.000                             : :Chapter 01
00:05:44.167                             : :Chapter 02
00:12:42.833                             : :Chapter 03
00:19:15.083                             : :Chapter 04
00:23:14.458                             : :Chapter 05
00:29:43.708                             : :Chapter 06
00:37:28.708                             : :Chapter 07
00:49:23.625                             : :Chapter 08
01:05:51.583                             : :Chapter 09
01:11:14.417                             : :Chapter 10
01:16:58.625                             : :Chapter 11
01:19:21.542                             : :Chapter 12
01:25:02.542                             : :Chapter 13
01:36:28.875                             : :Chapter 14
01:45:06.750                             : :Chapter 15
01:53:50.417                             : :Chapter 16
01:57:42.292                             : :Chapter 17
02:04:14.583                             : :Chapter 18

4055d4ee42f051494471c8403a618507.png

[/url]2b64ab0681225da9c9ccb64d302ff5d6.png

[/url]d6549e4c662c44e5bb5ede469a51720a.png

[/url]



                                                                                                                                                                                                        
                                                                                                                                                                                                                                                                                                                                                                                                                                                                                                                                                                                                                                                                                                                                                                                                                                                        
7bb5e464e9b4087a7b029c3fa5e96ae4.torrent (19.28 KB, 下载次数: 0)

回复

使用道具 举报

小黑屋|西西论坛

本网站所有资源来自网络,如无意中侵犯了您的权益,请发邮件至 [email protected],立即清除相关链接

GMT+8, 2022-1-20 04:56 , Processed in 6.038401 second(s), 17 queries .

Powered by Discuz! X3.2

© 2001-2013 Comsenz Inc.

快速回复 返回顶部 返回列表