西西论坛

 找回密码
 立即注册
搜索

乔西的虎与鱼 Josee.The.Tiger.And.The.Fish.2020.JAPANESE.1080p.BluRay.x264.DTS-iK ...

[复制链接]
admin 发表于 2022-1-2 08:01:17 | 显示全部楼层 |阅读模式
乔西的虎与鱼 Josee.The.Tiger.And.The.Fish.2020.JAPANESE.1080p.BluRay.x264.DTS-iKiW 9.7                                                                                                                                                                                                                                                                                                                                                                                                                                                                                                                                        -->
帖子完整标题:乔西的虎与鱼 Josee.The.Tiger.And.The.Fish.2020.JAPANESE.1080p.BluRay.x264.DTS-iKiW 9.75GB



b87cc38985a29e3d140c43f403f6c508.jpg



◎译  名 乔西的虎与鱼/Josee, the Tiger and the Fish/Jose与虎与鱼们/乔瑟与虎与鱼群动画版(台)/乔瑟的虎与鱼群
◎片  名 ジョゼと虎と魚たち
◎年  代 2020
◎产  地 日本
◎类  别 动画
◎语  言 日语
◎上映日期 2020-10-30(釜山电影节) / 2020-12-25(日本) / 2021-08-20(中国大陆)
◎豆瓣评分 6.3/10 from 5624 users
◎豆瓣链接 
◎片  长 99分钟
◎导  演 田村耕太郎 Tamura Koutarou
◎编  剧 桑村沙也香 Sayaka Kuwamura / 田边圣子 Seiko Tanabe
◎主  演 清原果耶 Kaya Kiyohara
       中川大志 Taishi Nakagawa
       宫本侑芽 Yume Miyamoto
       兴津和幸 Kazuyuki Okitsu
       河西健吾 Kengo Kawanishi
       内田夕夜 Yuuya Uchida
       浦山迅 Jin Urayama
       寺杣昌纪 Masaki Terasoma
       Lynn Lynn

◎标  签 日本 | 动画 | 爱情 | 动漫 | 二次元 | 青春 | BONES | 剧场版

◎简  介

  活在自我世界中的乔西,遨游在自己感兴趣的绘画和书籍的海洋中。自幼便一直坐在轮椅上的她,某天在一个危险的斜坡上差点摔倒的时候,得到了大学生恒夫的帮助。专攻海洋生物学的恒夫,为了实现自己能够亲眼看一下只生活在墨西哥的梦幻鱼群的梦想,日夜不停地在进行着兼职打工。
  
  和乔西相依为命的祖母千津看到这样的恒夫,向他介绍了一份兼职工作。这份工作的内容就是听从乔西的要求,并想办法满足她。然而,固执且不善与他人交流的乔西对恒夫非常刻薄,而恒夫也没有在意乔西是个残疾人,直率地回应她。
  
  就这样逐渐地,双方的距离缩短,开始了解对方。在两人接触的过程中,乔西也下定决心,要与恒夫一起去看看自己梦寐以求的外面世界……
  
  影片改编自田边圣子小说《Jose与虎与鱼们》。

◎获奖情况

  第44届日本电影学院奖 ?(2021)
  最佳动画片(提名)
Video
ID                                       : 1
Format                                   : AVC
Format/Info                              : Advanced Video Codec
Format profile                           :
Format settings                          : CABAC / 5 Ref Frames
Format settings, CABAC                   : Yes
Format settings, Reference frames        : 5 frames
Codec ID                                 : V_MPEG4/ISO/AVC
Duration                                 : 1 h 38 min
Bit rate                                 : 12.0 Mb/s
Width                                    : 1 920 pixels
Height                                   : 802 pixels
Display aspect ratio                     : 2.40:1
Frame rate mode                          : Constant
Frame rate                               : 23.976 (24000/1001/189150) FPS
Color space                              : YUV
Chroma subsampling                       : 4:2:0
Bit depth                                : 8 bits
Scan type                                : Progressive
Bits/(Pixel*Frame)                       : 0.325
Stream size                              : 8.23 GiB (84%)
Writing library                          : x264 core 133 r2334 a3ac64b
Encoding settings                        : cabac=1 / ref=5 / deblock=1:-1:-1 / analyse=0x3:0x113 / me=umh / subme=11 / psy=1 / psy_rd=1.00:0.00 / mixed_ref=1 / me_range=64 / chroma_me=1 / trellis=2 / 8x8dct=1 / cqm=0 / deadzone=21,11 / fast_pskip=0 / chroma_qp_offset=-4 / threads=36 / lookahead_threads=6 / sliced_threads=0 / nr=0 / decimate=0 / interlaced=0 / bluray_compat=0 / constrained_intra=0 / bframes=8 / b_pyramid=2 / b_adapt=2 / b_bias=0 / direct=3 / weightb=1 / open_gop=0 / weightp=2 / keyint=250 / keyint_min=23 / scenecut=40 / intra_refresh=0 / rc=2pass / mbtree=0 / bitrate=12000 / ratetol=1.0 / qcomp=0.60 / qpmin=0 / qpmax=69 / qpstep=4 / cplxblur=20.0 / qblur=0.5 / ip_ratio=1.40 / pb_ratio=1.30 / aq=1:0.80
Language                                 : English
Default                                  : Yes
Forced                                   : No

Audio #1
ID                                       : 2
Format                                   : DTS
Format/Info                              : Digital Theater Systems
Codec ID                                 : A_DTS
Duration                                 : 1 h 38 min
Bit rate mode                            : Constant
Bit rate                                 : 1 509 kb/s
Channel(s)                               : 6 channels
Channel layout                           : C L R Ls Rs LFE
Sampling rate                            : 48.0 kHz
Frame rate                               : 93.750 FPS (512 SPF)
Bit depth                                : 24 bits
Compression mode                         : Lossy
Stream size                              : 1.03 GiB (11%)
Title                                    : 日语
Language                                 : Japanese
Default                                  : No
Forced                                   : No

Audio #2
ID                                       : 3
Format                                   : AC-3
Format/Info                              : Audio Coding 3
Commercial name                          : Dolby Digital
Codec ID                                 : A_AC3
Duration                                 : 1 h 38 min
Bit rate mode                            : Constant
Bit rate                                 : 640 kb/s
Channel(s)                               : 2 channels
Channel layout                           : L R
Sampling rate                            : 48.0 kHz
Frame rate                               : 31.250 FPS (1536 SPF)
Compression mode                         : Lossy
Stream size                              : 449 MiB (5%)
Title                                    : 中影公映国语
Language                                 : Chinese
Service kind                             : Complete Main
Default                                  : Yes
Forced                                   : No

Text #1
ID                                       : 4
Format                                   : UTF-8
Codec ID                                 : S_TEXT/UTF8
Codec ID/Info                            : UTF-8 Plain Text
Duration                                 : 1 h 36 min
Bit rate                                 : 37 b/s
Count of elements                        : 1051
Stream size                              : 26.4 KiB (0%)
Language                                 : English
Default                                  : Yes
Forced                                   : No

Text #2
ID                                       : 5
Format                                   : ASS
Codec ID                                 : S_TEXT/ASS
Codec ID/Info                            : Advanced Sub Station Alpha
Duration                                 : 1 h 36 min
Bit rate                                 : 138 b/s
Count of elements                        : 1034
Compression mode                         : Lossless
Stream size                              : 97.7 KiB (0%)
Title                                    : chs
Language                                 : Chinese
Default                                  : No
Forced                                   : No

Text #3
ID                                       : 6
Format                                   : ASS
Codec ID                                 : S_TEXT/ASS
Codec ID/Info                            : Advanced Sub Station Alpha
Duration                                 : 1 h 36 min
Bit rate                                 : 138 b/s
Count of elements                        : 1034
Compression mode                         : Lossless
Stream size                              : 97.8 KiB (0%)
Title                                    : cht
Language                                 : Chinese
Default                                  : No
Forced                                   : No

74d8064756961cc6a5d2732642acc77f.png

[/url]7736c0b26ee6346a4b5a1d6f5cfc1b74.png

[/url]cce9d898a664f3bb26886982fb00cb0e.png

[/url]



                                                                                                                                                                                                        
                                                                                                                                                                                                                                                                                                                                                                                                                                                                                                                                                                                                                                                                                                                                                                                                                                                        
0b7297d25d40221abf6c27d530ffbc93.torrent (25.05 KB, 下载次数: 0)

回复

使用道具 举报

小黑屋|西西论坛

本网站所有资源来自网络,如无意中侵犯了您的权益,请发邮件至 [email protected],立即清除相关链接

GMT+8, 2022-1-20 04:47 , Processed in 0.109049 second(s), 17 queries .

Powered by Discuz! X3.2

© 2001-2013 Comsenz Inc.

快速回复 返回顶部 返回列表