西西论坛

 找回密码
 立即注册
搜索

狼行者 WolfWalkers.2020.1080p.BluRay.x264.DDP5.1-NOGRP 10.33GB

[复制链接]
admin 发表于 2022-1-2 08:01:13 | 显示全部楼层 |阅读模式
狼行者 WolfWalkers.2020.1080p.BluRay.x264.DDP5.1-NOGRP 10.33GB                                                                                                                                                                                                                                                                                                                                                                                                                                                                                                                                        -->
帖子完整标题:狼行者 WolfWalkers.2020.1080p.BluRay.x264.DDP5.1-NOGRP 10.33GB



d1356451dc057ca372f3db2a9eb9436d.jpg



◎译  名 狼行者/Le peuple loup
◎片  名 Wolfwalkers
◎年  代 2020
◎产  地 爱尔兰,英国,卢森堡,法国
◎类  别 动画 / 奇幻 / 冒险
◎语  言 英语
◎上映日期 2020-09-12(多伦多电影节) / 2020-12-11(美国) / 2021-07-03(中国大陆)
◎豆瓣评分 7.8/10 from 28220 users
◎豆瓣链接 
◎片  长 100分钟
◎导  演 汤姆·摩尔 Tomm Moore / 罗斯·斯图尔特 Ross Stewart
◎编  剧 威尔·柯林斯 Will Collins / 汤姆·摩尔 Tomm Moore / 罗斯·斯图尔特 Ross Stewart / 杰瑞卡·克莱兰 Jericca Cleland
◎主  演 霍纳·妮芙茜 Honor Kneafsey
       伊娃·惠塔克 Eva Whittaker
       肖恩·宾 Sean Bean
       西蒙·迈克伯尼 Simon McBurney
       汤米·蒂尔南 Tommy Tiernan
       玛丽亚·多耶·肯尼迪 Maria Doyle Kennedy
       乔·肯尼 Jon Kenny
       约翰·莫顿 John Morton
       诺拉·托梅 Nora Twomey
       奥利弗·麦克格拉斯 Oliver McGrath
       保罗·杨 Paul Young
       文斯·德鲁斯 Vince Drews
       Gilbert Johnston Gilbert Johnston
       Amy Dunne Amy Dunne
       迈克尔·麦格拉斯 Michael McGrath
       艾伦·斯莱特里 Alan Slattery
       David Thompson David Thompson

◎标  签 动画 | 爱尔兰 | 奇幻 | 魔幻 | 冒险 | 2020 | 英国 | 卢森堡

◎简  介

  讲述了11岁女孩萝宾的神奇经历。萝宾作为一个年轻的学徒猎人,她和父亲一起来到爱尔兰,准备消灭最后一批在那里的狼,但是改变她的事情来了,她发现了狼行者,此后一连串的古怪故事就发生了……

◎获奖情况

  第78届金球奖 ?(2021)
  电影类最佳动画长片(提名)
  
  第74届英国电影学院奖 ?(2021)
  电影奖最佳动画片(提名) 罗斯·斯图尔特?/?汤姆·摩尔
  
  第34届欧洲电影奖 ?(2021)
  最佳动画片(提名)
  
  第48届动画安妮奖 ?(2021)
  最佳独立动画长片
  最佳导演 罗斯·斯图尔特?/?汤姆·摩尔
  最佳编剧(提名)
  最佳配乐(提名)
  最佳分镜(提名)
  最佳艺术指导
  最佳动画角色(提名)
  最佳角色设计
  最佳动画效果(提名)
  
  第34届中国电影金鸡奖 ?(2021)
  最佳外语片(提名)
  
  第32届美国制片人工会奖 ?(2021)
  最佳动画片制片人奖(提名)
  
  第71届美国剪辑工会奖 ?(2021)
  动画片最佳剪辑(提名) 达拉赫·拜恩
  
  第25届美国艺术指导工会奖 ?(2021)
  电影奖最佳动画电影艺术指导(提名) 罗斯·斯图尔特?/?汤姆·摩尔?/?玛丽亚·帕雷贾
  
  第68届美国音效剪辑协会奖 ?(2021)
  金卷轴奖最佳动画片音效剪辑(提名)
  
  第86届纽约影评人协会奖 ?(2020)
  最佳动画片
  
  第92届美国国家评论协会奖 ?(2020)
  十佳独立电影
  
  第30届哥谭独立电影奖 ?(2020)
  最佳国际影片(提名)
  
  第25届金卫星奖 ?(2021)
  电影部门最佳动画片(提名)
  
  第41届伦敦影评人协会奖 ?(2021)
  技术成就奖(提名) 罗斯·斯图尔特?/?汤姆·摩尔
  
  第41届波士顿影评人协会奖 ?(2020)
  最佳动画片(提名)
  
  第46届洛杉矶影评人协会奖 ?(2020)
  最佳动画片
  
  第33届芝加哥影评人协会奖 ?(2020)
  最佳动画片
  
  第5届亚特兰大影评人协会奖 ?(2020)
  最佳动画片(提名)
  
  第24届美国在线影评人协会奖 ?(2021)
  最佳动画片(提名)
Video
ID                                       : 1
Format                                   : AVC
Format/Info                              : Advanced Video Codec
Format profile                           :
Format settings                          : CABAC / 4 Ref Frames
Format settings, CABAC                   : Yes
Format settings, Reference frames        : 4 frames
Codec ID                                 : V_MPEG4/ISO/AVC
Duration                                 : 1 h 43 min
Bit rate                                 : 12.8 Mb/s
Width                                    : 1 920 pixels
Height                                   : 1 040 pixels
Display aspect ratio                     : 1.85:1
Frame rate mode                          : Constant
Frame rate                               : 23.976 (24000/1001/189150) FPS
Color space                              : YUV
Chroma subsampling                       : 4:2:0
Bit depth                                : 8 bits
Scan type                                : Progressive
Bits/(Pixel*Frame)                       : 0.267
Stream size                              : 9.25 GiB (90%)
Writing library                          : x264 core 164 r3079+60M
Encoding settings                        : cabac=1 / ref=4 / deblock=1:-3:-3 / analyse=0x3:0x113 / me=umh / subme=11 / psy=1 / fade_compensate=0.00 / psy_rd=0.80:0.00 / mixed_ref=1 / me_range=48 / chroma_me=1 / trellis=2 / 8x8dct=1 / cqm=0 / deadzone=21,11 / fast_pskip=0 / chroma_qp_offset=-2 / threads=18 / lookahead_threads=4 / sliced_threads=0 / nr=0 / decimate=0 / interlaced=0 / bluray_compat=0 / constrained_intra=0 / fgo=0 / bframes=14 / b_pyramid=2 / b_adapt=2 / b_bias=0 / direct=3 / weightb=1 / open_gop=0 / weightp=2 / keyint=250 / keyint_min=23 / scenecut=40 / intra_refresh=0 / rc_lookahead=60 / rc=crf / mbtree=0 / crf=14.8000 / qcomp=0.60 / qpmin=0:0:0 / qpmax=69:69:69 / qpstep=4 / vbv_maxrate=62500 / vbv_bufsize=78125 / crf_max=0.0 / nal_hrd=none / filler=0 / ip_ratio=1.30 / pb_ratio=1.20 / aq=3:0.90 / aq-sensitivity=10.00 / aq-factor=1.00:1.00:1.00 / aq2=0 / aq3=0
Language                                 : English
Default                                  : Yes
Forced                                   : No
Color range                              : Limited
Color primaries                          : BT.709
Transfer characteristics                 : BT.709
Matrix coefficients                      : BT.709

Audio #1
ID                                       : 2
Format                                   : E-AC-3
Format/Info                              : Enhanced AC-3
Commercial name                          : Dolby Digital Plus
Codec ID                                 : A_EAC3
Duration                                 : 1 h 43 min
Bit rate mode                            : Constant
Bit rate                                 : 1 024 kb/s
Channel(s)                               : 6 channels
Channel layout                           : L R C LFE Ls Rs
Sampling rate                            : 48.0 kHz
Frame rate                               : 31.250 FPS (1536 SPF)
Compression mode                         : Lossy
Stream size                              : 760 MiB (7%)
Language                                 : English
Service kind                             : Complete Main
Default                                  : Yes
Forced                                   : No

Audio #2
ID                                       : 3
Format                                   : AC-3
Format/Info                              : Audio Coding 3
Commercial name                          : Dolby Digital
Codec ID                                 : A_AC3
Duration                                 : 1 h 43 min
Bit rate mode                            : Constant
Bit rate                                 : 448 kb/s
Channel(s)                               : 6 channels
Channel layout                           : L R C LFE Ls Rs
Sampling rate                            : 48.0 kHz
Frame rate                               : 31.250 FPS (1536 SPF)
Compression mode                         : Lossy
Stream size                              : 333 MiB (3%)
Title                                    : Commentary with Director Tomm Moore and Screenwriter Will Collins
Language                                 : English
Service kind                             : Complete Main
Default                                  : No
Forced                                   : No

Text #1
ID                                       : 4
Format                                   : UTF-8
Codec ID                                 : S_TEXT/UTF8
Codec ID/Info                            : UTF-8 Plain Text
Duration                                 : 1 h 41 min
Bit rate                                 : 68 b/s
Count of elements                        : 1106
Stream size                              : 50.6 KiB (0%)
Language                                 : Arabic
Default                                  : No
Forced                                   : No

Text #2
ID                                       : 5
Format                                   : UTF-8
Codec ID                                 : S_TEXT/UTF8
Codec ID/Info                            : UTF-8 Plain Text
Duration                                 : 1 h 41 min
Bit rate                                 : 44 b/s
Count of elements                        : 1098
Stream size                              : 32.8 KiB (0%)
Title                                    : Brazilian Portugues
Language                                 : Portuguese
Default                                  : No
Forced                                   : No

Text #3
ID                                       : 6
Format                                   : UTF-8
Codec ID                                 : S_TEXT/UTF8
Codec ID/Info                            : UTF-8 Plain Text
Duration                                 : 1 h 41 min
Bit rate                                 : 65 b/s
Count of elements                        : 1069
Stream size                              : 48.7 KiB (0%)
Language                                 : Bulgarian
Default                                  : No
Forced                                   : No

Text #4
ID                                       : 7
Format                                   : UTF-8
Codec ID                                 : S_TEXT/UTF8
Codec ID/Info                            : UTF-8 Plain Text
Duration                                 : 1 h 41 min
Bit rate                                 : 40 b/s
Count of elements                        : 1113
Stream size                              : 30.1 KiB (0%)
Title                                    : Chinese Simplified
Language                                 : Chinese
Default                                  : No
Forced                                   : No

Text #5
ID                                       : 8
Format                                   : UTF-8
Codec ID                                 : S_TEXT/UTF8
Codec ID/Info                            : UTF-8 Plain Text
Duration                                 : 1 h 41 min
Bit rate                                 : 41 b/s
Count of elements                        : 1116
Stream size                              : 30.5 KiB (0%)
Title                                    : Chinese Traditional
Language                                 : Chinese
Default                                  : No
Forced                                   : No

Text #6
ID                                       : 9
Format                                   : UTF-8
Codec ID                                 : S_TEXT/UTF8
Codec ID/Info                            : UTF-8 Plain Text
Duration                                 : 1 h 41 min
Bit rate                                 : 39 b/s
Count of elements                        : 1091
Stream size                              : 29.7 KiB (0%)
Language                                 : Czech
Default                                  : No
Forced                                   : No

Text #7
ID                                       : 10
Format                                   : UTF-8
Codec ID                                 : S_TEXT/UTF8
Codec ID/Info                            : UTF-8 Plain Text
Duration                                 : 1 h 41 min
Bit rate                                 : 44 b/s
Count of elements                        : 1062
Stream size                              : 33.3 KiB (0%)
Language                                 : Danish
Default                                  : No
Forced                                   : No

Text #8
ID                                       : 11
Format                                   : UTF-8
Codec ID                                 : S_TEXT/UTF8
Codec ID/Info                            : UTF-8 Plain Text
Duration                                 : 1 h 41 min
Bit rate                                 : 43 b/s
Count of elements                        : 911
Stream size                              : 32.0 KiB (0%)
Language                                 : Dutch
Default                                  : No
Forced                                   : No

Text #9
ID                                       : 12
Format                                   : UTF-8
Codec ID                                 : S_TEXT/UTF8
Codec ID/Info                            : UTF-8 Plain Text
Duration                                 : 1 h 37 min
Bit rate                                 : 62 b/s
Count of elements                        : 1639
Stream size                              : 45.1 KiB (0%)
Title                                    : SDH
Language                                 : English
Default                                  : No
Forced                                   : No

Text #10
ID                                       : 13
Format                                   : UTF-8
Codec ID                                 : S_TEXT/UTF8
Codec ID/Info                            : UTF-8 Plain Text
Duration                                 : 1 h 36 min
Bit rate                                 : 48 b/s
Count of elements                        : 1151
Stream size                              : 34.3 KiB (0%)
Language                                 : English
Default                                  : No
Forced                                   : No

Text #11
ID                                       : 14
Format                                   : UTF-8
Codec ID                                 : S_TEXT/UTF8
Codec ID/Info                            : UTF-8 Plain Text
Duration                                 : 1 h 41 min
Bit rate                                 : 41 b/s
Count of elements                        : 1072
Stream size                              : 31.1 KiB (0%)
Language                                 : Estonian
Default                                  : No
Forced                                   : No

Text #12
ID                                       : 15
Format                                   : UTF-8
Codec ID                                 : S_TEXT/UTF8
Codec ID/Info                            : UTF-8 Plain Text
Duration                                 : 1 h 41 min
Bit rate                                 : 44 b/s
Count of elements                        : 1078
Stream size                              : 32.7 KiB (0%)
Title                                    : Spanish European
Language                                 : Spanish
Default                                  : No
Forced                                   : No

Text #13
ID                                       : 16
Format                                   : UTF-8
Codec ID                                 : S_TEXT/UTF8
Codec ID/Info                            : UTF-8 Plain Text
Duration                                 : 1 h 41 min
Bit rate                                 : 42 b/s
Count of elements                        : 1112
Stream size                              : 31.5 KiB (0%)
Language                                 : Finnish
Default                                  : No
Forced                                   : No

Text #14
ID                                       : 17
Format                                   : UTF-8
Codec ID                                 : S_TEXT/UTF8
Codec ID/Info                            : UTF-8 Plain Text
Duration                                 : 1 h 41 min
Bit rate                                 : 39 b/s
Count of elements                        : 1100
Stream size                              : 29.4 KiB (0%)
Title                                    : French Canadian
Language                                 : French
Default                                  : No
Forced                                   : No

Text #15
ID                                       : 18
Format                                   : UTF-8
Codec ID                                 : S_TEXT/UTF8
Codec ID/Info                            : UTF-8 Plain Text
Duration                                 : 1 h 41 min
Bit rate                                 : 39 b/s
Count of elements                        : 1100
Stream size                              : 29.4 KiB (0%)
Language                                 : French
Default                                  : No
Forced                                   : No

Text #16
ID                                       : 19
Format                                   : UTF-8
Codec ID                                 : S_TEXT/UTF8
Codec ID/Info                            : UTF-8 Plain Text
Duration                                 : 1 h 41 min
Bit rate                                 : 47 b/s
Count of elements                        : 1032
Stream size                              : 35.5 KiB (0%)
Language                                 : German
Default                                  : No
Forced                                   : No

Text #17
ID                                       : 20
Format                                   : UTF-8
Codec ID                                 : S_TEXT/UTF8
Codec ID/Info                            : UTF-8 Plain Text
Duration                                 : 1 h 41 min
Bit rate                                 : 73 b/s
Count of elements                        : 1106
Stream size                              : 54.6 KiB (0%)
Title                                    : Greek
Language                                 : Greek
Default                                  : No
Forced                                   : No

Text #18
ID                                       : 21
Format                                   : UTF-8
Codec ID                                 : S_TEXT/UTF8
Codec ID/Info                            : UTF-8 Plain Text
Duration                                 : 1 h 41 min
Bit rate                                 : 61 b/s
Count of elements                        : 1114
Stream size                              : 45.5 KiB (0%)
Language                                 : Hebrew
Default                                  : No
Forced                                   : No

Text #19
ID                                       : 22
Format                                   : UTF-8
Codec ID                                 : S_TEXT/UTF8
Codec ID/Info                            : UTF-8 Plain Text
Duration                                 : 1 h 41 min
Bit rate                                 : 118 b/s
Count of elements                        : 1116
Stream size                              : 88.3 KiB (0%)
Language                                 : Hindi
Default                                  : No
Forced                                   : No

Text #20
ID                                       : 23
Format                                   : UTF-8
Codec ID                                 : S_TEXT/UTF8
Codec ID/Info                            : UTF-8 Plain Text
Duration                                 : 1 h 41 min
Bit rate                                 : 45 b/s
Count of elements                        : 1109
Stream size                              : 33.7 KiB (0%)
Language                                 : Hungarian
Default                                  : No
Forced                                   : No

Text #21
ID                                       : 24
Format                                   : UTF-8
Codec ID                                 : S_TEXT/UTF8
Codec ID/Info                            : UTF-8 Plain Text
Duration                                 : 1 h 41 min
Bit rate                                 : 44 b/s
Count of elements                        : 1112
Stream size                              : 33.4 KiB (0%)
Language                                 : Indonesian
Default                                  : No
Forced                                   : No

Text #22
ID                                       : 25
Format                                   : UTF-8
Codec ID                                 : S_TEXT/UTF8
Codec ID/Info                            : UTF-8 Plain Text
Duration                                 : 1 h 41 min
Bit rate                                 : 49 b/s
Count of elements                        : 1153
Stream size                              : 36.9 KiB (0%)
Language                                 : Italian
Default                                  : No
Forced                                   : No

Text #23
ID                                       : 26
Format                                   : UTF-8
Codec ID                                 : S_TEXT/UTF8
Codec ID/Info                            : UTF-8 Plain Text
Duration                                 : 1 h 41 min
Bit rate                                 : 37 b/s
Count of elements                        : 987
Stream size                              : 27.8 KiB (0%)
Language                                 : Japanese
Default                                  : No
Forced                                   : No

Text #24
ID                                       : 27
Format                                   : UTF-8
Codec ID                                 : S_TEXT/UTF8
Codec ID/Info                            : UTF-8 Plain Text
Duration                                 : 1 h 41 min
Bit rate                                 : 52 b/s
Count of elements                        : 1110
Stream size                              : 38.7 KiB (0%)
Language                                 : Korean
Default                                  : No
Forced                                   : No

Text #25
ID                                       : 28
Format                                   : UTF-8
Codec ID                                 : S_TEXT/UTF8
Codec ID/Info                            : UTF-8 Plain Text
Duration                                 : 1 h 41 min
Bit rate                                 : 47 b/s
Count of elements                        : 1113
Stream size                              : 34.9 KiB (0%)
Language                                 : Latvian
Default                                  : No
Forced                                   : No

Text #26
ID                                       : 29
Format                                   : UTF-8
Codec ID                                 : S_TEXT/UTF8
Codec ID/Info                            : UTF-8 Plain Text
Duration                                 : 1 h 41 min
Bit rate                                 : 42 b/s
Count of elements                        : 1109
Stream size                              : 31.9 KiB (0%)
Language                                 : Lithuanian
Default                                  : No
Forced                                   : No

Text #27
ID                                       : 30
Format                                   : UTF-8
Codec ID                                 : S_TEXT/UTF8
Codec ID/Info                            : UTF-8 Plain Text
Duration                                 : 1 h 40 min
Bit rate                                 : 43 b/s
Count of elements                        : 1111
Stream size                              : 32.2 KiB (0%)
Language                                 : Malay
Default                                  : No
Forced                                   : No

Text #28
ID                                       : 31
Format                                   : UTF-8
Codec ID                                 : S_TEXT/UTF8
Codec ID/Info                            : UTF-8 Plain Text
Duration                                 : 1 h 41 min
Bit rate                                 : 40 b/s
Count of elements                        : 1099
Stream size                              : 30.1 KiB (0%)
Language                                 : Norwegian
Default                                  : No
Forced                                   : No

Text #29
ID                                       : 32
Format                                   : UTF-8
Codec ID                                 : S_TEXT/UTF8
Codec ID/Info                            : UTF-8 Plain Text
Duration                                 : 1 h 41 min
Bit rate                                 : 42 b/s
Count of elements                        : 1099
Stream size                              : 31.2 KiB (0%)
Language                                 : Polish
Default                                  : No
Forced                                   : No

Text #30
ID                                       : 33
Format                                   : UTF-8
Codec ID                                 : S_TEXT/UTF8
Codec ID/Info                            : UTF-8 Plain Text
Duration                                 : 1 h 41 min
Bit rate                                 : 38 b/s
Count of elements                        : 1102
Stream size                              : 28.9 KiB (0%)
Language                                 : Portuguese
Default                                  : No
Forced                                   : No

Text #31
ID                                       : 34
Format                                   : UTF-8
Codec ID                                 : S_TEXT/UTF8
Codec ID/Info                            : UTF-8 Plain Text
Duration                                 : 1 h 41 min
Bit rate                                 : 61 b/s
Count of elements                        : 1114
Stream size                              : 45.9 KiB (0%)
Language                                 : Russian
Default                                  : No
Forced                                   : No

Text #32
ID                                       : 35
Format                                   : UTF-8
Codec ID                                 : S_TEXT/UTF8
Codec ID/Info                            : UTF-8 Plain Text
Duration                                 : 1 h 41 min
Bit rate                                 : 42 b/s
Count of elements                        : 1111
Stream size                              : 31.6 KiB (0%)
Language                                 : Slovak
Default                                  : No
Forced                                   : No

Text #33
ID                                       : 36
Format                                   : UTF-8
Codec ID                                 : S_TEXT/UTF8
Codec ID/Info                            : UTF-8 Plain Text
Duration                                 : 1 h 41 min
Bit rate                                 : 34 b/s
Count of elements                        : 939
Stream size                              : 25.6 KiB (0%)
Language                                 : Slovenian
Default                                  : No
Forced                                   : No

Text #34
ID                                       : 37
Format                                   : UTF-8
Codec ID                                 : S_TEXT/UTF8
Codec ID/Info                            : UTF-8 Plain Text
Duration                                 : 1 h 41 min
Bit rate                                 : 44 b/s
Count of elements                        : 1075
Stream size                              : 33.2 KiB (0%)
Language                                 : Spanish
Default                                  : No
Forced                                   : No

Text #35
ID                                       : 38
Format                                   : UTF-8
Codec ID                                 : S_TEXT/UTF8
Codec ID/Info                            : UTF-8 Plain Text
Duration                                 : 1 h 41 min
Bit rate                                 : 44 b/s
Count of elements                        : 1113
Stream size                              : 33.3 KiB (0%)
Language                                 : Swedish
Default                                  : No
Forced                                   : No

Text #36
ID                                       : 39
Format                                   : UTF-8
Codec ID                                 : S_TEXT/UTF8
Codec ID/Info                            : UTF-8 Plain Text
Duration                                 : 1 h 41 min
Bit rate                                 : 149 b/s
Count of elements                        : 1109
Stream size                              : 111 KiB (0%)
Language                                 : Tamil
Default                                  : No
Forced                                   : No

Text #37
ID                                       : 40
Format                                   : UTF-8
Codec ID                                 : S_TEXT/UTF8
Codec ID/Info                            : UTF-8 Plain Text
Duration                                 : 1 h 41 min
Bit rate                                 : 131 b/s
Count of elements                        : 1113
Stream size                              : 97.9 KiB (0%)
Language                                 : Telugu
Default                                  : No
Forced                                   : No

Text #38
ID                                       : 41
Format                                   : UTF-8
Codec ID                                 : S_TEXT/UTF8
Codec ID/Info                            : UTF-8 Plain Text
Duration                                 : 1 h 41 min
Bit rate                                 : 106 b/s
Count of elements                        : 1111
Stream size                              : 79.1 KiB (0%)
Language                                 : Thai
Default                                  : No
Forced                                   : No

Text #39
ID                                       : 42
Format                                   : UTF-8
Codec ID                                 : S_TEXT/UTF8
Codec ID/Info                            : UTF-8 Plain Text
Duration                                 : 1 h 41 min
Bit rate                                 : 45 b/s
Count of elements                        : 1113
Stream size                              : 34.0 KiB (0%)
Language                                 : Turkish
Default                                  : No
Forced                                   : No

Text #40
ID                                       : 43
Format                                   : UTF-8
Codec ID                                 : S_TEXT/UTF8
Codec ID/Info                            : UTF-8 Plain Text
Duration                                 : 1 h 41 min
Bit rate                                 : 65 b/s
Count of elements                        : 1108
Stream size                              : 48.8 KiB (0%)
Language                                 : Ukrainian
Default                                  : No
Forced                                   : No

Text #41
ID                                       : 44
Format                                   : UTF-8
Codec ID                                 : S_TEXT/UTF8
Codec ID/Info                            : UTF-8 Plain Text
Duration                                 : 1 h 41 min
Bit rate                                 : 56 b/s
Count of elements                        : 1116
Stream size                              : 42.3 KiB (0%)
Language                                 : Vietnamese
Default                                  : No
Forced                                   : No

Menu
00:00:00.000                             : en:Chapter 01
00:05:25.492                             : en:Chapter 02
00:11:59.510                             : en:Chapter 03
00:16:07.592                             : en:Chapter 04
00:20:44.118                             : en:Chapter 05
00:25:32.614                             : en:Chapter 06
00:31:34.142                             : en:Chapter 07
00:36:21.137                             : en:Chapter 08
00:41:02.293                             : en:Chapter 09
00:45:40.196                             : en:Chapter 10
00:51:01.892                             : en:Chapter 11
00:56:32.222                             : en:Chapter 12
01:01:42.699                             : en:Chapter 13
01:06:24.689                             : en:Chapter 14
01:12:39.188                             : en:Chapter 15
01:19:04.198                             : en:Chapter 16
01:24:18.929                             : en:Chapter 17
01:28:54.246                             : en:Chapter 18
01:32:37.719                             : en:Chapter 19
01:37:48.029                             : en:Chapter 20

d816f2927b523747af6dd3ec16584da1.png

[/url]decb2dab4180e9f56bc476c917edbcc3.png

[/url]341fe1ddedaeee582ac014e3b5c3308b.png

[/url]



                                                                                                                                                                                                        
                                                                                                                                                                                                                                                                                                                                                                                                                                                                                                                                                                                                                                                                                                                                                                                                                                                        
35a07470f7359ed1b1ed795345f4561a.torrent (13.52 KB, 下载次数: 0)

回复

使用道具 举报

小黑屋|西西论坛

本网站所有资源来自网络,如无意中侵犯了您的权益,请发邮件至 [email protected],立即清除相关链接

GMT+8, 2022-1-20 04:37 , Processed in 0.147008 second(s), 17 queries .

Powered by Discuz! X3.2

© 2001-2013 Comsenz Inc.

快速回复 返回顶部 返回列表