西西论坛

 找回密码
 立即注册
搜索

来自科罗拉多的人/火窟鸳鸯 The.Glenn.Miller.Story.1954.WS.1080p.BluRay.x264-PEGAS ...

[复制链接]
admin 发表于 2022-1-2 08:01:10 | 显示全部楼层 |阅读模式
来自科罗拉多的人/火窟鸳鸯 The.Glenn.Miller.Story.1954.WS.1080p.BluRay.x264-PEGASUS 8.73GB                                                                                                                                                                                                                                                                                                                                                                                                                                                                                                                                        -->
帖子完整标题:来自科罗拉多的人/火窟鸳鸯 The.Glenn.Miller.Story.1954.WS.1080p.BluRay.x264-PEGASUS 8.73GB



aa1155093af869461713a9c412a441d2.jpg



◎译  名 来自科罗拉多的人/火窟鸳鸯
◎片  名 The Man from Colorado
◎年  代 1948
◎产  地 美国
◎类  别 西部
◎语  言 英语
◎上映日期 1948-08-07(瑞典)
◎豆瓣评分 6.9/10 from 53 users
◎豆瓣链接 
◎片  长 100分钟
◎导  演 亨利·莱文 Henry Levin
◎编  剧 罗伯特·哈迪·安德鲁斯 Robert Hardy Andrews / 本·马多 Ben Maddow / 博登·蔡斯 Borden Chase
◎主  演 威廉·霍尔登 William Holden
       格伦·福特 Glenn Ford
       艾伦·德鲁 Ellen Drew
       弗莱德·格兰姆 Fred Graham
       埃迪·凡特思顿 Eddie Fetherston
       Ben Corbett Ben Corbett
       James Millican James Millican
       威廉·菲利普斯 William 'Bill' Phillips
       帕特·奥马利 Pat O'Malley
       Craig Reynolds Craig Reynolds
       雷·蒂尔 Ray Teal
       Blackie Whiteford Blackie Whiteford
       Ray Hyke Ray Hyke
       Clarence Chase Clarence Chase
       大卫·克拉克 David Clarke
       伊恩·麦克唐纳 Ian MacDonald
       杰罗姆·考特兰 Jerome Courtland
       埃德加·巴詹南 Edgar Buchanan
       丹佛·派尔 Denver Pyle
       迈伦·希里 Myron Healey
       斯坦利·安德鲁斯 Stanley Andrews
       沃尔特·鲍德温 Walter Baldwin
       Symona Boniface Symona Boniface
       雷·柯林斯 Ray Collins
       Fred Coby Fred Coby
       James Bush James Bush
       Mikel Conrad Mikel Conrad
       Jim Bannon Jim Bannon

◎标  签 美国 | 西部片 | 西部 | 1948 | WilliamHolden | 1940s | 威廉·霍尔登 | 美国电影

◎简  介

  暂无相关剧情介绍
Video
ID                                       : 1
Format                                   : AVC
Format/Info                              : Advanced Video Codec
Format profile                           :
Format settings                          : CABAC / 4 Ref Frames
Format settings, CABAC                   : Yes
Format settings, Reference frames        : 4 frames
Codec ID                                 : V_MPEG4/ISO/AVC
Duration                                 : 1 h 52 min
Bit rate                                 : 10.6 Mb/s
Width                                    : 1 920 pixels
Height                                   : 1 040 pixels
Display aspect ratio                     : 1.85:1
Frame rate mode                          : Constant
Frame rate                               : 23.976 (24000/1001/189150) FPS
Color space                              : YUV
Chroma subsampling                       : 4:2:0
Bit depth                                : 8 bits
Scan type                                : Progressive
Bits/(Pixel*Frame)                       : 0.222
Stream size                              : 8.36 GiB (96%)
Writing library                          : x264 core 164 r3079 d9a19f0
Encoding settings                        : cabac=1 / ref=4 / deblock=1:-3:-3 / analyse=0x3:0x133 / me=umh / subme=11 / psy=1 / psy_rd=1.02:0.00 / mixed_ref=1 / me_range=32 / chroma_me=1 / trellis=2 / 8x8dct=1 / cqm=0 / deadzone=21,11 / fast_pskip=0 / chroma_qp_offset=-2 / threads=32 / lookahead_threads=8 / sliced_threads=0 / nr=0 / decimate=0 / interlaced=0 / bluray_compat=0 / constrained_intra=0 / bframes=16 / b_pyramid=2 / b_adapt=2 / b_bias=0 / direct=3 / weightb=1 / open_gop=0 / weightp=2 / keyint=250 / keyint_min=23 / scenecut=40 / intra_refresh=0 / rc_lookahead=250 / rc=crf / mbtree=0 / crf=19.5 / qcomp=0.60 / qpmin=0 / qpmax=69 / qpstep=4 / vbv_maxrate=62500 / vbv_bufsize=78125 / crf_max=0.0 / nal_hrd=none / filler=0 / ip_ratio=1.30 / pb_ratio=1.20 / aq=3:0.80
Default                                  : Yes
Forced                                   : No
Color range                              : Limited
Color primaries                          : BT.709
Matrix coefficients                      : BT.709

Audio
ID                                       : 2
Format                                   : FLAC
Format/Info                              : Free Lossless Audio Codec
Codec ID                                 : A_FLAC
Duration                                 : 1 h 52 min
Bit rate mode                            : Variable
Bit rate                                 : 447 kb/s
Channel(s)                               : 2 channels
Channel layout                           : L R
Sampling rate                            : 48.0 kHz
Frame rate                               : 11.719 FPS (4096 SPF)
Bit depth                                : 16 bits
Compression mode                         : Lossless
Stream size                              : 359 MiB (4%)
Writing library                          : libFLAC 1.2.1 (UTC 2007-09-17)
Language                                 : English
Default                                  : Yes
Forced                                   : No

Text
ID                                       : 3
Format                                   : PGS
Muxing mode                              : zlib
Codec ID                                 : S_HDMV/PGS
Codec ID/Info                            : Picture based subtitle format used on BDs/HD-DVDs
Duration                                 : 1 h 50 min
Bit rate                                 : 40.8 kb/s
Count of elements                        : 2013
Stream size                              : 32.2 MiB (0%)
Title                                    : SDH
Language                                 : English
Default                                  : No
Forced                                   : No

Menu
00:00:00.000                             : :Chapter 01
00:10:32.715                             : :Chapter 02
00:22:43.279                             : :Chapter 03
00:29:01.990                             : :Chapter 04
00:33:49.194                             : :Chapter 05
00:42:33.760                             : :Chapter 06
00:52:12.588                             : :Chapter 07
01:04:55.433                             : :Chapter 08
01:12:22.672                             : :Chapter 09
01:22:06.463                             : :Chapter 10
01:33:56.840                             : :Chapter 11
01:43:47.221                             : :Chapter 12

6ed17958de74dc72c32a0af77fedf504.jpg





                                                                                                                                                                                                        
                                                                                                                                                                                                                                                                                                                                                                                                                                                                                                                                                                                                                                                                                                                                                                                                                                                        
2e3fe89963391c7663fd07cdf89ddd02.torrent (22.61 KB, 下载次数: 0)

回复

使用道具 举报

小黑屋|西西论坛

本网站所有资源来自网络,如无意中侵犯了您的权益,请发邮件至 [email protected],立即清除相关链接

GMT+8, 2022-6-27 04:57 , Processed in 0.113225 second(s), 17 queries .

Powered by Discuz! X3.2

© 2001-2013 Comsenz Inc.

快速回复 返回顶部 返回列表