西西论坛

 找回密码
 立即注册
搜索

你需要的就是爱 Love.Is.All.You.Need.2012.1080p.BluRay.x264-RedBlade 8.75GB ... ...

[复制链接]
admin 发表于 2022-1-1 12:00:41 | 显示全部楼层 |阅读模式
你需要的就是爱 Love.Is.All.You.Need.2012.1080p.BluRay.x264-RedBlade 8.75GB                                                                                                                                                                                                                                                                                                                                                                                                                                                                                                                                        -->
帖子完整标题:你需要的就是爱 Love.Is.All.You.Need.2012.1080p.BluRay.x264-RedBlade 8.75GB



ea6c1a9d04df42cbf04ebf644a13a3b3.jpg



◎译  名 你需要的就是爱/Love Is All You Need/你只需要爱/你所需要的就是爱/爱即所求/美丽疗情(港)
◎片  名 Den Skaldede Fris?r
◎年  代 2012
◎产  地 丹麦,瑞典,意大利,法国,德国
◎类  别 喜剧 / 爱情
◎语  言 丹麦语,英语,意大利语
◎上映日期 2012-09-06(丹麦)
◎豆瓣评分 6.6/10 from 228 users
◎豆瓣链接 
◎片  长 116分钟
◎导  演 苏珊娜·比尔 Susanne Bier
◎编  剧 安诺斯·托马斯·延森 Anders Thomas Jensen / 苏珊娜·比尔 Susanne Bier
◎主  演 皮尔斯·布鲁斯南 Pierce Brosnan
       金·波德尼亚 Kim Bodnia
       崔娜·蒂虹 Trine Dyrholm
       帕普丽卡·斯汀 Paprika Steen
       克里斯蒂亚娜·绍姆堡-米勒 Christiane Schaumburg-Müller
        塞巴斯汀·杰森 Sebastian Jessen
       菲利普·赞丹 Philip Zandén
       米奇·思科尔·汉森 Micky Skeel Hansen
       Line Kruse Line Kruse

◎标  签 爱情 | 意大利 | 丹麦 | 喜剧 | 2012 | 皮尔斯·布鲁斯南 | 欧洲电影 | 剧情

◎简  介

  两个完全不一样的家庭在意大利度假,计划一场浪漫的联姻。当然,一切没有按照他们计划的进行,然而每个人最终都收获了惊喜。一部北欧风格的家庭喜剧,由卸下007装备的皮尔斯·布鲁斯南主演,入围第69届威尼斯影展非竞赛单元。

◎获奖情况

  第26届欧洲电影奖 ?(2013)
  观众选择奖(提名) 苏珊娜·比尔
  最佳喜剧片 苏珊娜·比尔
Video
ID                                       : 1
Format                                   : AVC
Format/Info                              : Advanced Video Codec
Format profile                           :
Format settings                          : CABAC / 5 Ref Frames
Format settings, CABAC                   : Yes
Format settings, Reference frames        : 5 frames
Codec ID                                 : V_MPEG4/ISO/AVC
Duration                                 : 1 h 56 min
Bit rate                                 : 9 275 kb/s
Width                                    : 1 920 pixels
Height                                   : 816 pixels
Display aspect ratio                     : 2.35:1
Frame rate mode                          : Constant
Frame rate                               : 23.976 (24000/1001/189150) FPS
Color space                              : YUV
Chroma subsampling                       : 4:2:0
Bit depth                                : 8 bits
Scan type                                : Progressive
Bits/(Pixel*Frame)                       : 0.247
Stream size                              : 7.35 GiB (84%)
Writing library                          : x264 core 140 r2377 1ca7bb9
Encoding settings                        : cabac=1 / ref=5 / deblock=1:0:0 / analyse=0x3:0x113 / me=umh / subme=7 / psy=1 / psy_rd=1.00:0.00 / mixed_ref=1 / me_range=16 / chroma_me=1 / trellis=1 / 8x8dct=1 / cqm=0 / deadzone=21,11 / fast_pskip=1 / chroma_qp_offset=-2 / threads=6 / lookahead_threads=1 / sliced_threads=0 / nr=0 / decimate=1 / interlaced=0 / bluray_compat=0 / constrained_intra=0 / bframes=3 / b_pyramid=2 / b_adapt=1 / b_bias=0 / direct=1 / weightb=0 / open_gop=0 / weightp=2 / keyint=240 / keyint_min=23 / scenecut=40 / intra_refresh=0 / rc_lookahead=40 / rc=2pass / mbtree=0 / bitrate=9275 / ratetol=1.0 / qcomp=0.60 / qpmin=10 / qpmax=51 / qpstep=4 / cplxblur=20.0 / qblur=0.5 / vbv_maxrate=62500 / vbv_bufsize=78125 / nal_hrd=none / filler=0 / ip_ratio=1.40 / pb_ratio=1.30 / aq=1:1.00
Language                                 : English
Default                                  : Yes
Forced                                   : No

Audio
ID                                       : 2
Format                                   : DTS
Format/Info                              : Digital Theater Systems
Codec ID                                 : A_DTS
Duration                                 : 1 h 56 min
Bit rate mode                            : Constant
Bit rate                                 : 1 509 kb/s
Channel(s)                               : 6 channels
Channel layout                           : C L R Ls Rs LFE
Sampling rate                            : 48.0 kHz
Frame rate                               : 93.750 FPS (512 SPF)
Bit depth                                : 24 bits
Compression mode                         : Lossy
Stream size                              : 1.22 GiB (14%)
Title                                    : English
Language                                 : English
Default                                  : Yes
Forced                                   : No

Text
ID                                       : 3
Format                                   : UTF-8
Codec ID                                 : S_TEXT/UTF8
Codec ID/Info                            : UTF-8 Plain Text
Title                                    : English
Language                                 : English
Default                                  : Yes
Forced                                   : No

1a23c7248d5d5198761578a6f1b6eb8b.png

[/url]155cfc7157f71e9d27bbf27ba6734756.png

[/url]1dfc9e594bd23dc1d9f88615a1636450.png

[/url]



                                                                                                                                                                                                        
                                                                                                                                                                                                                                                                                                                                                                                                                                                                                                                                                                                                                                                                                                                                                                                                                                                        
3191bb77362fe5afe85ace18d3cc6a76.torrent (22.58 KB, 下载次数: 0)

回复

使用道具 举报

小黑屋|西西论坛

本网站所有资源来自网络,如无意中侵犯了您的权益,请发邮件至 [email protected],立即清除相关链接

GMT+8, 2022-6-27 04:22 , Processed in 0.109568 second(s), 17 queries .

Powered by Discuz! X3.2

© 2001-2013 Comsenz Inc.

快速回复 返回顶部 返回列表