西西论坛

 找回密码
 立即注册
搜索

中国医生 Chinese.Doctors.2021.CHINESE.1080p.BluRay.x264.DD5.1-iKiW 10.99GB

[复制链接]
admin 发表于 2022-1-1 12:00:38 | 显示全部楼层 |阅读模式
中国医生 Chinese.Doctors.2021.CHINESE.1080p.BluRay.x264.DD5.1-iKiW 10.99GB                                                                                                                                                                                                                                                                                                                                                                                                                                                                                                                                        -->
帖子完整标题:中国医生 Chinese.Doctors.2021.CHINESE.1080p.BluRay.x264.DD5.1-iKiW 10.99GB



b529c90ca1f0526c333c65e2d11efdcb.jpg



◎译  名 Chinese Doctors/中国·医生
◎片  名 中国医生
◎年  代 2021
◎产  地 中国大陆
◎类  别 剧情 / 灾难
◎语  言 汉语普通话
◎上映日期 2021-07-09(中国大陆)
◎豆瓣评分 6.9/10 from 206236 users
◎豆瓣链接 
◎片  长 129分钟
◎导  演 刘伟强 Andrew Lau
◎编  剧 于勇敢 Yonggan Yu
◎主  演 张涵予 Hanyu Zhang
       袁泉 Quan Yuan
       朱亚文 Yawen Zhu
       李晨 Chen Li
       易烊千玺 Jackson Yee
       欧豪 Hao Ou
       周也 Ye Zhou
       冯文娟 Wenjuan Feng
       耿乐 Le Geng
       梁大维 Dawei Liang
       小爱 Hao Liu
       雅玫 Yamei Zhang
       杨祺如 Qiru Yang
       叶禾 He Ye
       蒋林燕 Linyan Jiang
       梅婷 Ting Mei
       李沁 Qin Li
       张天爱 Tian'ai Zhang
       宋佳 Jia Song
       俞飞鸿 Faye Yu
       倪虹洁 Hongjie Ni
       冯绍峰 Shaofeng Feng
       周笔畅 Bichang Zhou
       张颂文 Songwen Zhang
       张子枫 Zifeng Zhang
       佟丽娅 Liya Tong
       谷嘉诚 Jason Gu
       刘威 Wei Liu
       刘佳 Jia Liu
       赵宁宇 Ningyu Zhao
       王挺 Ting Wang
       余皑磊 Ailei Yu
       黄璐 Lu Huang
       印小天 Xiaotian Yin
       张嘉倪 Jiani Zhang
       释小龙 Siu Lung Sik
       高戈 Ge Gao
       刘琳 Lin Liu
       来喜 Laixi
       万国鹏 Guopeng Wan
       王昭 Zhao Wang
       石昊正 Haozheng Shi
       解佳桐 Jiatong Xie

◎标  签 抗疫 | 真实事件改编 | 疫情 | 温情 | 中国大陆 | 人性 | 2021 | 灾难

◎简  介

  电影根据新冠肺炎疫情防控斗争的真实事件改编,以武汉市金银潭医院为核心故事背景,同时兼顾武汉同济医院、武汉市肺科医院、武汉协和医院、武汉大学人民医院(湖北省人民医院)、火神山医院、方舱医院等兄弟单位,以武汉医护人员、全国各省市援鄂医疗队为人物原型,全景式记录波澜壮阔、艰苦卓绝的抗疫斗争。

◎获奖情况

  第34届中国电影金鸡奖 ?(2021)
  最佳故事片(提名)
  最佳男配角(提名) 朱亚文
  最佳音乐 陈光荣?/?陈永健
  
  第16届中国长春电影节 ?(2021)
  评委会特别奖
  
  第13届澳门国际电影节 ?(2021)
  金莲花奖最佳故事片大奖(提名)
  金莲花奖最佳女配角(提名) 袁泉
Video
ID                                       : 1
Format                                   : AVC
Format/Info                              : Advanced Video Codec
Format profile                           :
Format settings                          : CABAC / 5 Ref Frames
Format settings, CABAC                   : Yes
Format settings, Reference frames        : 5 frames
Codec ID                                 : V_MPEG4/ISO/AVC
Duration                                 : 2 h 8 min
Bit rate                                 : 11.6 Mb/s
Width                                    : 1 920 pixels
Height                                   : 804 pixels
Display aspect ratio                     : 2.40:1
Frame rate mode                          : Constant
Frame rate                               : 24.000 FPS
Color space                              : YUV
Chroma subsampling                       : 4:2:0
Bit depth                                : 8 bits
Scan type                                : Progressive
Bits/(Pixel*Frame)                       : 0.314
Stream size                              : 10.4 GiB (95%)
Writing library                          : x264 core 129 r2245 bc13772
Encoding settings                        : cabac=1 / ref=5 / deblock=1:-3:-3 / analyse=0x3:0x133 / me=umh / subme=11 / psy=1 / psy_rd=1.05:0.05 / mixed_ref=1 / me_range=64 / chroma_me=1 / trellis=2 / 8x8dct=1 / cqm=0 / deadzone=21,11 / fast_pskip=0 / chroma_qp_offset=-3 / threads=24 / lookahead_threads=4 / sliced_threads=0 / nr=0 / decimate=1 / interlaced=0 / bluray_compat=0 / constrained_intra=0 / bframes=10 / b_pyramid=2 / b_adapt=2 / b_bias=0 / direct=3 / weightb=1 / open_gop=0 / weightp=2 / keyint=250 / keyint_min=24 / scenecut=40 / intra_refresh=0 / rc_lookahead=60 / rc=2pass / mbtree=1 / bitrate=11624 / ratetol=1.0 / qcomp=0.60 / qpmin=0 / qpmax=69 / qpstep=4 / cplxblur=20.0 / qblur=0.5 / vbv_maxrate=40000 / vbv_bufsize=30000 / nal_hrd=none / ip_ratio=1.40 / aq=1:0.80
Language                                 : English
Default                                  : Yes
Forced                                   : No

Audio
ID                                       : 2
Format                                   : AC-3
Format/Info                              : Audio Coding 3
Commercial name                          : Dolby Digital
Format settings                          : Dolby Surround EX
Codec ID                                 : A_AC3
Duration                                 : 2 h 8 min
Bit rate mode                            : Constant
Bit rate                                 : 640 kb/s
Channel(s)                               : 6 channels
Channel layout                           : L R C LFE Ls Rs
Sampling rate                            : 48.0 kHz
Frame rate                               : 31.250 FPS (1536 SPF)
Compression mode                         : Lossy
Stream size                              : 588 MiB (5%)
Language                                 : Chinese
Service kind                             : Complete Main
Default                                  : Yes
Forced                                   : No

Text #1
ID                                       : 3
Format                                   : UTF-8
Codec ID                                 : S_TEXT/UTF8
Codec ID/Info                            : UTF-8 Plain Text
Duration                                 : 2 h 3 min
Bit rate                                 : 54 b/s
Count of elements                        : 2069
Stream size                              : 49.6 KiB (0%)
Language                                 : English
Default                                  : Yes
Forced                                   : No

Text #2
ID                                       : 4
Format                                   : UTF-8
Codec ID                                 : S_TEXT/UTF8
Codec ID/Info                            : UTF-8 Plain Text
Duration                                 : 2 h 3 min
Bit rate                                 : 43 b/s
Count of elements                        : 2079
Stream size                              : 39.2 KiB (0%)
Title                                    : 简体
Language                                 : Chinese
Default                                  : No
Forced                                   : No

Text #3
ID                                       : 5
Format                                   : UTF-8
Codec ID                                 : S_TEXT/UTF8
Codec ID/Info                            : UTF-8 Plain Text
Duration                                 : 2 h 3 min
Bit rate                                 : 43 b/s
Count of elements                        : 2079
Stream size                              : 39.2 KiB (0%)
Title                                    : 繁体
Language                                 : Chinese
Default                                  : No
Forced                                   : No

fbed77f6e752d6ed4f606aab4520a784.png

[/url]a21b8a82d8fa2916f530789291122410.png

[/url]e629a014b1e34c692a3168c40f3069cf.png

[/url]



                                                                                                                                                                                                        
                                                                                                                                                                                                                                                                                                                                                                                                                                                                                                                                                                                                                                                                                                                                                                                                                                                        
15c31171731899e369f9abca68eddf11.torrent (14.38 KB, 下载次数: 0)

回复

使用道具 举报

小黑屋|西西论坛

本网站所有资源来自网络,如无意中侵犯了您的权益,请发邮件至 [email protected],立即清除相关链接

GMT+8, 2022-6-27 04:24 , Processed in 0.126744 second(s), 22 queries .

Powered by Discuz! X3.2

© 2001-2013 Comsenz Inc.

快速回复 返回顶部 返回列表