西西论坛

 找回密码
 立即注册
搜索

无辜者 The.Innocents.2021.NORWEGIAN.1080p.BluRay.x264.DTS-SbR 15.52GB

[复制链接]
admin 发表于 2022-1-1 12:00:35 | 显示全部楼层 |阅读模式
无辜者 The.Innocents.2021.NORWEGIAN.1080p.BluRay.x264.DTS-SbR 15.52GB                                                                                                                                                                                                                                                                                                                                                                                                                                                                                                                                        -->
帖子完整标题:无辜者 The.Innocents.2021.NORWEGIAN.1080p.BluRay.x264.DTS-SbR 15.52GB





◎译  名 无辜者/The Innocents
◎片  名 De uskyldige
◎年  代 2021
◎产  地 挪威,瑞典,丹麦,英国,法国,芬兰
◎类  别 惊悚 / 恐怖
◎语  言 挪威语
◎上映日期 2021-07-11(戛纳电影节) / 2021-09-03(挪威)
◎豆瓣评分 7.1/10 from 7587 users
◎豆瓣链接 
◎片  长 117分钟
◎导  演 埃斯基尔·沃格特 Eskil Vogt
◎编  剧 埃斯基尔·沃格特 Eskil Vogt
◎主  演 雷克·蕾诺拉·弗洛特姆 Rakel Lenora Fl?ttum
       阿尔瓦·布林斯莫·拉姆斯塔德 Alva Brynsmo Ramstad
       艾伦·多丽特·彼得森 Ellen Dorrit Petersen
       莫滕·斯瓦特维特 Morten Svartveit
       Marius Kolbenstvedt Marius Kolbenstvedt
       托恩·格洛特约德·格伦 Tone Gr?ttjord-Glenne
       山姆·阿什拉夫 Sam Ashraf
       米娜·贾斯敏·布雷姆塞思·阿什海姆 Mina Yasmin Bremseth Asheim

◎标  签 惊悚 | 恐怖 | 挪威 | 儿童 | 2021 | 挪威电影 | 戛纳 | 埃斯基尔·沃格特

◎简  介

  沃格特(Vogt)撰写并导演了有关四个孩子(6至12岁)的故事,而这件事引起了父母的注意,而他们的无辜玩耍又变成了其他事情。电影制作团队写道:“神奇而令人毛骨悚然的事情开始发生。《无辜者》是一部成人电影,讲述了进入儿童秘密世界的令人震惊的旅程。”
  
  本片由Maria Ekerhovd Mer Film发行。

◎获奖情况

  第74届戛纳电影节 ?(2021)
  一种关注单元一种关注大奖(提名) 埃斯基尔·沃格特
  
  第34届欧洲电影奖 ?(2021)
  最佳音效设计
Video
ID                                       : 1
Format                                   : AVC
Format/Info                              : Advanced Video Codec
Format profile                           :
Format settings                          : CABAC / 4 Ref Frames
Format settings, CABAC                   : Yes
Format settings, Reference frames        : 4 frames
Codec ID                                 : V_MPEG4/ISO/AVC
Duration                                 : 1 h 57 min
Bit rate                                 : 17.4 Mb/s
Width                                    : 1 920 pixels
Height                                   : 804 pixels
Display aspect ratio                     : 2.40:1
Frame rate mode                          : Constant
Frame rate                               : 24.000 FPS
Color space                              : YUV
Chroma subsampling                       : 4:2:0
Bit depth                                : 8 bits
Scan type                                : Progressive
Bits/(Pixel*Frame)                       : 0.471
Stream size                              : 14.3 GiB (92%)
Writing library                          : x264 core 164 r3079+60M cd8c3e1 devel [(8 & 10) X86_64]
Encoding settings                        : cabac=1 / ref=4 / deblock=1:-3:-3 / analyse=0x3:0x133 / me=umh / subme=11 / psy=1 / fade_compensate=0.00 / psy_rd=1.00:0.00 / mixed_ref=1 / me_range=32 / chroma_me=1 / trellis=2 / 8x8dct=1 / cqm=0 / deadzone=21,11 / fast_pskip=1 / chroma_qp_offset=-2 / threads=32 / lookahead_threads=6 / sliced_threads=0 / nr=0 / decimate=1 / interlaced=0 / bluray_compat=0 / constrained_intra=0 / fgo=0 / bframes=10 / b_pyramid=2 / b_adapt=2 / b_bias=0 / direct=3 / weightb=1 / open_gop=0 / weightp=2 / keyint=250 / keyint_min=24 / scenecut=40 / intra_refresh=0 / rc=crf / mbtree=0 / crf=17.0000 / qcomp=0.65 / qpmin=0:0:0 / qpmax=69:69:69 / qpstep=4 / ip_ratio=1.25 / pb_ratio=1.20 / aq=1:0.60 / aq-sensitivity=10.00 / aq-factor=1.00:1.00:1.00 / aq2=0 / aq3=0
Language                                 : Norwegian
Default                                  : Yes
Forced                                   : No

Audio
ID                                       : 2
Format                                   : DTS
Format/Info                              : Digital Theater Systems
Codec ID                                 : A_DTS
Duration                                 : 1 h 57 min
Bit rate mode                            : Constant
Bit rate                                 : 1 509 kb/s
Channel(s)                               : 6 channels
Channel layout                           : C L R Ls Rs LFE
Sampling rate                            : 48.0 kHz
Frame rate                               : 93.750 FPS (512 SPF)
Bit depth                                : 24 bits
Compression mode                         : Lossy
Stream size                              : 1.24 GiB (8%)
Language                                 : Norwegian
Default                                  : Yes
Forced                                   : No

Text #1
ID                                       : 3
Format                                   : ASS
Codec ID                                 : S_TEXT/ASS
Codec ID/Info                            : Advanced Sub Station Alpha
Duration                                 : 1 h 49 min
Bit rate                                 : 41 b/s
Count of elements                        : 589
Compression mode                         : Lossless
Stream size                              : 33.3 KiB (0%)
Language                                 : Russian
Default                                  : No
Forced                                   : No

Text #2
ID                                       : 4
Format                                   : UTF-8
Codec ID                                 : S_TEXT/UTF8
Codec ID/Info                            : UTF-8 Plain Text
Duration                                 : 1 h 49 min
Bit rate                                 : 25 b/s
Count of elements                        : 589
Stream size                              : 20.7 KiB (0%)
Language                                 : Russian
Default                                  : No
Forced                                   : No

Text #3
ID                                       : 5
Format                                   : UTF-8
Codec ID                                 : S_TEXT/UTF8
Codec ID/Info                            : UTF-8 Plain Text
Duration                                 : 1 h 51 min
Bit rate                                 : 15 b/s
Count of elements                        : 515
Stream size                              : 12.5 KiB (0%)
Title                                    : Machine
Language                                 : English
Default                                  : No
Forced                                   : No

Text #4
ID                                       : 6
Format                                   : UTF-8
Codec ID                                 : S_TEXT/UTF8
Codec ID/Info                            : UTF-8 Plain Text
Duration                                 : 1 h 47 min
Bit rate                                 : 17 b/s
Count of elements                        : 598
Stream size                              : 13.5 KiB (0%)
Title                                    : Machine from Danish
Language                                 : English
Default                                  : No
Forced                                   : No

Text #5
ID                                       : 7
Format                                   : UTF-8
Codec ID                                 : S_TEXT/UTF8
Codec ID/Info                            : UTF-8 Plain Text
Duration                                 : 1 h 47 min
Bit rate                                 : 17 b/s
Count of elements                        : 594
Stream size                              : 14.0 KiB (0%)
Language                                 : Norwegian
Default                                  : No
Forced                                   : No

Menu
00:00:00.000                             : en:Chapter 01
00:14:17.750                             : en:Chapter 02
00:30:34.500                             : en:Chapter 03
00:41:36.625                             : en:Chapter 04
00:56:13.792                             : en:Chapter 05
01:08:16.833                             : en:Chapter 06
01:21:10.583                             : en:Chapter 07
01:37:49.042                             : en:Chapter 08

bb8d79c75dfceed0f8ced4884db9dd14.png

[/url]fb06da8232eedf2578c64a319e432a77.png

[/url]fc0af1f24fdf44f7b7e94ed8f972a394.png

[/url]



                                                                                                                                                                                                        
                                                                                                                                                                                                                                                                                                                                                                                                                                                                                                                                                                                                                                                                                                                                                                                                                                                        
ebe2ede281e4084522bd3d7e4ab0af49.torrent (20.03 KB, 下载次数: 0)

回复

使用道具 举报

小黑屋|西西论坛

本网站所有资源来自网络,如无意中侵犯了您的权益,请发邮件至 [email protected],立即清除相关链接

GMT+8, 2022-1-20 03:50 , Processed in 0.114653 second(s), 17 queries .

Powered by Discuz! X3.2

© 2001-2013 Comsenz Inc.

快速回复 返回顶部 返回列表