西西论坛

 找回密码
 立即注册
搜索

瓶中仙子 The.Brass.Bottle.1964.1080p.BluRay.x264.FLAC2.0-NOGRP 14.67GB

[复制链接]
admin 发表于 2022-1-1 12:00:32 | 显示全部楼层 |阅读模式
瓶中仙子 The.Brass.Bottle.1964.1080p.BluRay.x264.FLAC2.0-NOGRP 14.67GB                                                                                                                                                                                                                                                                                                                                                                                                                                                                                                                                        -->
帖子完整标题:瓶中仙子 The.Brass.Bottle.1964.1080p.BluRay.x264.FLAC2.0-NOGRP 14.67GB





◎译  名 瓶中仙子
◎片  名 The Brass Bottle
◎年  代 1964
◎产  地 美国
◎类  别 喜剧 / 奇幻
◎语  言 英语
◎上映日期 1964
◎豆瓣评分 /10 from 0 users
◎豆瓣链接 
◎片  长 87 分钟
◎导  演 哈里·凯勒 Harry Keller
◎编  剧 F. Anstey F. Anstey / 奥斯卡·布罗德尼 Oscar Brodney
◎主  演 托尼·兰德尔 Tony Randall
       伯尔·艾弗斯 Burl Ives
       芭芭拉·伊登 Barbara Eden
       彼得·鲁珀斯 Peter Lupus
       Helen Jay Helen Jay
       雷格·刘易斯 Reg Lewis
       Robert P. Lieb Robert P. Lieb
       Nora Marlowe Nora Marlowe
       John W. Morley John W. Morley
       Harry Monty Harry Monty
       Johnny Silver Johnny Silver
       Howard Smith Howard Smith
       Aline Towne Aline Towne
       赫尔伯·维吉兰 Herb Vigran
       Guy Wilkerson Guy Wilkerson
       菲利普·奥伯 Philip Ober
       Christian Kay Christian Kay
       亚历克斯·格里 Alex Gerry
       哈罗德·古德温 Harold Goodwin
       简阿尔翁 Jan Arvan
       帕利·贝尔 Parley Baer
       爱蒂·威廉斯 Edy Williams
       爱德华·安德鲁斯 Edward Andrews
       安·多兰 Ann Doran
       李察·厄尔德曼 Richard Erdman
       Fern Barry Fern Barry
       约翰·卡拉文 John Craven
       Lee Giroux Lee Giroux
       Lincoln Demyan Lincoln Demyan
       比尔·厄尔文 Bill Erwin
       Alan Dexter Alan Dexter
       Juney Ellis Juney Ellis
       Kathie Browne Kathie Browne
       Ralph Brooks Ralph Brooks
       罗伯特·凯里卡特 Robert Carricart
       Russ Bender Russ Bender

◎标  签 奇幻 | 喜剧 | 美国 | 1964 | WEB | TonyRandall | BarbaraEden | 6.8

◎简  介

  Comedy about the proverbial genie who comes out of a bottle (a table lamp in this instance) to serve his new master. The only problem is that instead of helping his master, the genie (Burl Ives) tends to get his master (Tony Randall) into more predicaments than he gets him out of.
Video
ID                                       : 1
Format                                   : AVC
Format/Info                              : Advanced Video Codec
Format profile                           :
Format settings                          : CABAC / 4 Ref Frames
Format settings, CABAC                   : Yes
Format settings, Reference frames        : 4 frames
Codec ID                                 : V_MPEG4/ISO/AVC
Duration                                 : 1 h 29 min
Bit rate                                 : 22.8 Mb/s
Width                                    : 1 920 pixels
Height                                   : 1 040 pixels
Display aspect ratio                     : 1.85:1
Frame rate mode                          : Constant
Frame rate                               : 23.976 (24000/1001/189150) FPS
Color space                              : YUV
Chroma subsampling                       : 4:2:0
Bit depth                                : 8 bits
Scan type                                : Progressive
Bits/(Pixel*Frame)                       : 0.477
Stream size                              : 14.3 GiB (98%)
Writing library                          : x264 core 164 r3079+60M
Encoding settings                        : cabac=1 / ref=4 / deblock=1:-3:-3 / analyse=0x3:0x113 / me=umh / subme=11 / psy=1 / fade_compensate=0.00 / psy_rd=1.05:0.00 / mixed_ref=1 / me_range=48 / chroma_me=1 / trellis=2 / 8x8dct=1 / cqm=0 / deadzone=21,11 / fast_pskip=0 / chroma_qp_offset=-2 / threads=18 / lookahead_threads=4 / sliced_threads=0 / nr=0 / decimate=0 / interlaced=0 / bluray_compat=0 / constrained_intra=0 / fgo=0 / bframes=13 / b_pyramid=2 / b_adapt=2 / b_bias=0 / direct=3 / weightb=1 / open_gop=0 / weightp=2 / keyint=250 / keyint_min=23 / scenecut=40 / intra_refresh=0 / rc_lookahead=60 / rc=crf / mbtree=0 / crf=17.6000 / qcomp=0.60 / qpmin=0:0:0 / qpmax=69:69:69 / qpstep=4 / vbv_maxrate=62500 / vbv_bufsize=78125 / crf_max=0.0 / nal_hrd=none / filler=0 / ip_ratio=1.30 / pb_ratio=1.20 / aq=3:0.65 / aq-sensitivity=10.00 / aq-factor=1.00:1.00:1.00 / aq2=0 / aq3=0
Language                                 : English
Default                                  : Yes
Forced                                   : No
Color range                              : Limited
Color primaries                          : BT.709
Transfer characteristics                 : BT.709
Matrix coefficients                      : BT.709

Audio #1
ID                                       : 2
Format                                   : FLAC
Format/Info                              : Free Lossless Audio Codec
Codec ID                                 : A_FLAC
Duration                                 : 1 h 29 min
Bit rate mode                            : Variable
Bit rate                                 : 360 kb/s
Channel(s)                               : 2 channels
Channel layout                           : L R
Sampling rate                            : 48.0 kHz
Frame rate                               : 11.719 FPS (4096 SPF)
Bit depth                                : 16 bits
Compression mode                         : Lossless
Stream size                              : 231 MiB (2%)
Writing library                          : libFLAC 1.2.1 (UTC 2007-09-17)
Language                                 : English
Default                                  : Yes
Forced                                   : No

Audio #2
ID                                       : 3
Format                                   : AC-3
Format/Info                              : Audio Coding 3
Commercial name                          : Dolby Digital
Codec ID                                 : A_AC3
Duration                                 : 1 h 29 min
Bit rate mode                            : Constant
Bit rate                                 : 192 kb/s
Channel(s)                               : 2 channels
Channel layout                           : L R
Sampling rate                            : 48.0 kHz
Frame rate                               : 31.250 FPS (1536 SPF)
Compression mode                         : Lossy
Stream size                              : 123 MiB (1%)
Title                                    : Commentary by Author/Film Historian Lee Gambin - Includes Exclusive Interview with Star Barbara Eden
Language                                 : English
Service kind                             : Complete Main
Default                                  : No
Forced                                   : No

Text
ID                                       : 4
Format                                   : UTF-8
Codec ID                                 : S_TEXT/UTF8
Codec ID/Info                            : UTF-8 Plain Text
Duration                                 : 1 h 27 min
Bit rate                                 : 77 b/s
Count of elements                        : 1744
Stream size                              : 49.5 KiB (0%)
Language                                 : English
Default                                  : No
Forced                                   : No

Menu
00:00:00.000                             : en:Chapter 01
00:08:16.538                             : en:Chapter 02
00:15:17.667                             : en:Chapter 03
00:24:43.774                             : en:Chapter 04
00:40:24.839                             : en:Chapter 05
00:50:05.002                             : en:Chapter 06
00:59:20.140                             : en:Chapter 07
01:14:33.010                             : en:Chapter 08

2a8b33c9d8acdc49e509813ea0704c01.png

[/url]eb04d3a69b4a7af78e777e429019b2d9.png

[/url]



                                                                                                                                                                                                        
                                                                                                                                                                                                                                                                                                                                                                                                                                                                                                                                                                                                                                                                                                                                                                                                                                                        
c3a76aadb78a1ac1aae365ff90554aa4.torrent (18.96 KB, 下载次数: 0)

回复

使用道具 举报

小黑屋|西西论坛

本网站所有资源来自网络,如无意中侵犯了您的权益,请发邮件至 [email protected],立即清除相关链接

GMT+8, 2022-1-20 03:44 , Processed in 0.134034 second(s), 17 queries .

Powered by Discuz! X3.2

© 2001-2013 Comsenz Inc.

快速回复 返回顶部 返回列表