西西论坛

 找回密码
 立即注册
搜索

女人之名 Nome.Di.Donna.2018.ITALIAN.1080p.BluRay.x264.DDP5.1-EA 8.97GB

[复制链接]
admin 发表于 2022-1-1 12:00:28 | 显示全部楼层 |阅读模式
女人之名 Nome.Di.Donna.2018.ITALIAN.1080p.BluRay.x264.DDP5.1-EA 8.97GB                                                                                                                                                                                                                                                                                                                                                                                                                                                                                                                                        -->
帖子完整标题:女人之名 Nome.Di.Donna.2018.ITALIAN.1080p.BluRay.x264.DDP5.1-EA 8.97GB





◎译  名 女人之名/Name of A Woman/抗争天使(港)/无以女人的名义
◎片  名 Nome di donna
◎年  代 2018
◎产  地 意大利
◎类  别 剧情
◎语  言 意大利语
◎上映日期 2018-03-08(意大利)
◎豆瓣评分 6.3/10 from 304 users
◎豆瓣链接 
◎片  长 98分钟
◎导  演 马可·图利奥·吉奥达纳 Marco Tullio Giordana
◎编  剧 马可·图利奥·吉奥达纳 Marco Tullio Giordana
◎主  演 克里斯蒂安娜·卡波通蒂 Cristiana Capotondi
       瓦莱里奥·比纳斯科 Valerio Binasco
       斯特凡诺·斯坎达莱蒂 Stefano Scandaletti
       米雪拉·塞尚 Michela Cescon
       贝博·斯托蒂 Bebo Storti
       阿德里娅娜·阿斯蒂 Adriana Asti
       劳拉·马里诺尼 Laura Marinoni
       安妮塔·克拉沃斯 Anita Kravos
       Linda Caridi Linda Caridi
        Giovanni Battezzato
        Silvia Gallerano Silvia Gallerano
       Patrizia Piccinini Patrizia Piccinini
        Janina Rudenska

◎标  签 意大利 | 女性 | 剧情 | 意大利电影 | 2018 | 人性 | 女性独立自强 | 性骚扰

◎简  介

  《灿烂人生(2003)》导演马可·图利奥·吉奥达纳新作,2018意大利银丝带奖特别奖。女人的名字,绝对不是弱者。单亲妈妈莲娜,带着年幼女儿,在享负盛名的私营安老院,找到看护工作。即使男友提议由他养家,她仍坚持自力更生。工作看来理想,同事相处也融洽,却原来隐藏不可告人的秘密:病态老板沉迷制服诱惑,在神父包庇下,利用员工满足私欲??《灿烂人生》(2003)导演马高泰尼奥佐丹拿,早在「#MeToo」激起千层浪前,已构思好故事,如今上映正合时宜。莲娜要讨回公道,反被同事群起杯葛,更被控告造谣诽谤,但她不甘屈辱,决定抽身反击。
Video
ID                                       : 1
Format                                   : AVC
Format/Info                              : Advanced Video Codec
Format profile                           :
Format settings                          : CABAC / 5 Ref Frames
Format settings, CABAC                   : Yes
Format settings, Reference frames        : 5 frames
Codec ID                                 : V_MPEG4/ISO/AVC
Duration                                 : 1 h 31 min
Bit rate                                 : 13.0 Mb/s
Width                                    : 1 920 pixels
Height                                   : 804 pixels
Display aspect ratio                     : 2.40:1
Frame rate mode                          : Constant
Frame rate                               : 24.000 FPS
Color space                              : YUV
Chroma subsampling                       : 4:2:0
Bit depth                                : 8 bits
Scan type                                : Progressive
Bits/(Pixel*Frame)                       : 0.352
Stream size                              : 8.31 GiB (93%)
Title                                    : -EA
Writing library                          : x264 core 164 r3075+55M 97d28bb t_mod_New [(8 & 10) X86_64]
Encoding settings                        : cabac=1 / ref=5 / deblock=1:-3:-3 / analyse=0x3:0x133 / me=umh / subme=10 / psy=1 / fade_compensate=0.00 / psy_rd=0.97:0.00 / mixed_ref=1 / me_range=32 / chroma_me=1 / trellis=2 / 8x8dct=1 / cqm=0 / deadzone=21,11 / fast_pskip=0 / chroma_qp_offset=-2 / threads=18 / lookahead_threads=3 / sliced_threads=0 / nr=0 / decimate=0 / interlaced=0 / bluray_compat=0 / constrained_intra=0 / fgo=0 / bframes=9 / b_pyramid=2 / b_adapt=2 / b_bias=0 / direct=3 / weightb=1 / open_gop=0 / weightp=2 / keyint=240 / keyint_min=24 / scenecut=40 / intra_refresh=0 / rc_lookahead=60 / rc=crf / mbtree=0 / crf=16.1000 / qcomp=0.65 / qpmin=0:0:0 / qpmax=69:69:69 / qpstep=4 / vbv_maxrate=62500 / vbv_bufsize=78125 / crf_max=0.0 / nal_hrd=none / filler=0 / ip_ratio=1.35 / pb_ratio=1.25 / aq=3:0.85 / aq-sensitivity=10.00 / aq-factor=1.00:1.00:1.00 / aq2=0 / aq3=0
Language                                 : Italian
Default                                  : Yes
Forced                                   : No
Color range                              : Limited
Color primaries                          : BT.709
Transfer characteristics                 : BT.709
Matrix coefficients                      : BT.709

Audio
ID                                       : 2
Format                                   : E-AC-3
Format/Info                              : Enhanced AC-3
Commercial name                          : Dolby Digital Plus
Codec ID                                 : A_EAC3
Duration                                 : 1 h 31 min
Bit rate mode                            : Constant
Bit rate                                 : 1 023 kb/s
Channel(s)                               : 6 channels
Channel layout                           : L R C LFE Ls Rs
Sampling rate                            : 48.0 kHz
Frame rate                               : 93.750 FPS (512 SPF)
Compression mode                         : Lossy
Stream size                              : 668 MiB (7%)
Language                                 : Italian
Service kind                             : Complete Main
Default                                  : Yes
Forced                                   : No

Text #1
ID                                       : 3
Format                                   : UTF-8
Codec ID                                 : S_TEXT/UTF8
Codec ID/Info                            : UTF-8 Plain Text
Duration                                 : 1 h 24 min
Bit rate                                 : 78 b/s
Count of elements                        : 1182
Stream size                              : 48.8 KiB (0%)
Title                                    : srt
Language                                 : English
Default                                  : Yes
Forced                                   : No

Text #2
ID                                       : 4
Format                                   : PGS
Muxing mode                              : zlib
Codec ID                                 : S_HDMV/PGS
Codec ID/Info                            : Picture based subtitle format used on BDs/HD-DVDs
Duration                                 : 1 h 24 min
Bit rate                                 : 44.8 kb/s
Count of elements                        : 2378
Stream size                              : 27.1 MiB (0%)
Title                                    : sup
Language                                 : Italian
Default                                  : Yes
Forced                                   : No

Menu
00:00:00.000                             : :Chapter 01
00:00:37.000                             : :Chapter 02
00:08:00.542                             : :Chapter 03
00:18:26.250                             : :Chapter 04
00:31:10.833                             : :Chapter 05
00:36:21.125                             : :Chapter 06
00:42:53.958                             : :Chapter 07
00:49:14.417                             : :Chapter 08
00:55:41.917                             : :Chapter 09
01:02:07.292                             : :Chapter 10
01:08:28.458                             : :Chapter 11
01:18:48.875                             : :Chapter 12
01:26:13.958                             : :Chapter 13

18fa6a0ff38703940362e73948f1e283.png

[/url]a6549e27c0d624c42783012ade24bf97.png

[/url]89abb6bed14477e80331c4972db76495.png

[/url]



                                                                                                                                                                                                        
                                                                                                                                                                                                                                                                                                                                                                                                                                                                                                                                                                                                                                                                                                                                                                                                                                                        
938f653819b517f3b89b3d357ee34cd7.torrent (23.06 KB, 下载次数: 0)

回复

使用道具 举报

小黑屋|西西论坛

本网站所有资源来自网络,如无意中侵犯了您的权益,请发邮件至 [email protected],立即清除相关链接

GMT+8, 2022-1-20 03:27 , Processed in 0.123573 second(s), 17 queries .

Powered by Discuz! X3.2

© 2001-2013 Comsenz Inc.

快速回复 返回顶部 返回列表