西西论坛

 找回密码
 立即注册
搜索

静夜之决斗 The.Quiet.Duel.1949.JAPANESE.1080p.BluRay.x264.FLAC2.0-PTer 11.88GB . ...

[复制链接]
admin 发表于 2022-1-1 12:00:25 | 显示全部楼层 |阅读模式
静夜之决斗 The.Quiet.Duel.1949.JAPANESE.1080p.BluRay.x264.FLAC2.0-PTer 11.88GB                                                                                                                                                                                                                                                                                                                                                                                                                                                                                                                                        -->
帖子完整标题:静夜之决斗 The.Quiet.Duel.1949.JAPANESE.1080p.BluRay.x264.FLAC2.0-PTer 11.88GB



1212308698fe12a0c9e12ae89243795f.jpg



◎译  名 静夜之决斗/The Quiet Duel/静静的决斗
◎片  名 静かなる決闘
◎年  代 1949
◎产  地 日本
◎类  别 剧情
◎语  言 日语
◎上映日期 1949-03-13(日本)
◎豆瓣评分 7.6/10 from 1573 users
◎豆瓣链接 
◎片  长 95分钟
◎导  演 黑泽明 Akira Kurosawa
◎编  剧 黑泽明 Akira Kurosawa / 谷口千吉 Senkichi Taniguchi / 菊田一夫 Kazuo Kikuta
◎主  演 三船敏郎 Toshir? Mifune
       志村乔 Takashi Shimura
       三条美纪 Miki Sanjo
       植村谦二郎 Kenjiro Uemura
       中北千枝子 Chieko Nakakita
       千石规子 Noriko Sengoku
       宫崎准之助 Jyonosuke Miyazaki
       山口勇 Isamu Yamaguchi
       松本茂 Shigeru Matsumoto
       町田博子 Hiroko Machida
       高见贯 Kan Takami
       飞田喜佐夫 Kisao Tobita
       宫岛城之 Shigeyuki Miyajima
       伊达正 Tadashi Date
       须藤恒子 Etsuko Sudo
       泉静治 Seiji Izumi
       佐佐木正时 Masateru Sasaki
       宫岛健一 Ken'ichi Miyajima
       工藤洋辅 Yosuke Kudo
       池上湧子 Yakuko Ikegami
       松村若代 Wakayo Matsumura
       若原初子 Hatsuko Wakahara

◎标  签 黑泽明 | 日本 | 三船敏郎 | 日本电影 | 1949 | 志村乔 | 剧情 | 黑白

◎简  介

  1944年,第二次世界大战正是如火如荼的惨烈时刻。在南洋某个日军战地医院里,军医藤崎恭二(三船敏郎 饰)与同事们夜以继日,不辞疲倦,争分夺秒地抢救每一个伤员。然而厄运突然降临,藤崎的手不慎划上,更被梅毒携带者中田进(植村謙二郎 饰)的污血所感染。战争结束后,藤崎回到父亲孝之辅(志村喬 饰)的医院工作,虽然已有美丽的未婚妻美佐绪(三條美紀 饰),但是他不愿牵连爱人,因此不断推迟婚期,更决定与美佐绪分手。他保守着身患梅毒的秘密,一面与病魔作着悄寂无声的斗争,一面在医者的道路上艰难前行……
  
  本片根据菊田一夫的原作改编。
Video
ID                                       : 1
Format                                   : AVC
Format/Info                              : Advanced Video Codec
Format profile                           :
Format settings                          : CABAC / 5 Ref Frames
Format settings, CABAC                   : Yes
Format settings, Reference frames        : 5 frames
Codec ID                                 : V_MPEG4/ISO/AVC
Duration                                 : 1 h 34 min
Bit rate                                 : 17.7 Mb/s
Width                                    : 1 424 pixels
Height                                   : 1 056 pixels
Display aspect ratio                     : 4:3
Frame rate mode                          : Constant
Frame rate                               : 23.976 (24000/1001/189150) FPS
Color space                              : YUV
Chroma subsampling                       : 4:2:0
Bit depth                                : 8 bits
Scan type                                : Progressive
Bits/(Pixel*Frame)                       : 0.490
Stream size                              : 11.7 GiB (98%)
Title                                    : Video
Writing library                          : x264 core 158 r2984+47 456d10a t_mod_New [ X86_64]
Encoding settings                        : cabac=1 / ref=5 / deblock=1:-3:-3 / analyse=0x3:0x133 / me=umh / subme=11 / psy=1 / fade_compensate=0.00 / psy_rd=1.10:0.00 / mixed_ref=1 / me_range=32 / chroma_me=1 / trellis=2 / 8x8dct=1 / cqm=0 / deadzone=21,11 / fast_pskip=0 / chroma_qp_offset=-2 / threads=6 / lookahead_threads=1 / sliced_threads=0 / nr=0 / decimate=0 / interlaced=0 / bluray_compat=0 / constrained_intra=0 / fgo=0 / bframes=9 / b_pyramid=2 / b_adapt=2 / b_bias=0 / direct=3 / weightb=1 / open_gop=0 / weightp=2 / keyint=250 / keyint_min=23 / scenecut=40 / intra_refresh=0 / rc_lookahead=250 / rc=crf / mbtree=0 / crf=16.5000 / qcomp=0.55 / qpmin=0:0:0 / qpmax=69:69:69 / qpstep=4 / vbv_maxrate=62500 / vbv_bufsize=78125 / crf_max=0.0 / nal_hrd=none / filler=0 / ip_ratio=1.30 / pb_ratio=1.20 / aq=2:0.75 / aq-sensitivity=10.00 / aq-factor=1.00:1.00:1.00 / aq2=0 / aq3=0
Language                                 : Japanese
Default                                  : Yes
Forced                                   : No
Color range                              : Limited
Color primaries                          : BT.709
Matrix coefficients                      : BT.709

Audio
ID                                       : 2
Format                                   : FLAC
Format/Info                              : Free Lossless Audio Codec
Codec ID                                 : A_FLAC
Duration                                 : 1 h 34 min
Bit rate mode                            : Variable
Bit rate                                 : 261 kb/s
Channel(s)                               : 2 channels
Channel layout                           : L R
Sampling rate                            : 48.0 kHz
Frame rate                               : 11.719 FPS (4096 SPF)
Bit depth                                : 16 bits
Compression mode                         : Lossless
Stream size                              : 176 MiB (1%)
Title                                    : Audio
Writing library                          : libFLAC 1.2.1 (UTC 2007-09-17)
Language                                 : Japanese
Default                                  : Yes
Forced                                   : No

Text #1
ID                                       : 3
Format                                   : UTF-8
Codec ID                                 : S_TEXT/UTF8
Codec ID/Info                            : UTF-8 Plain Text
Duration                                 : 1 h 33 min
Bit rate                                 : 35 b/s
Count of elements                        : 757
Stream size                              : 24.6 KiB (0%)
Title                                    : English
Language                                 : English
Default                                  : Yes
Forced                                   : No

Text #2
ID                                       : 4
Format                                   : UTF-8
Codec ID                                 : S_TEXT/UTF8
Codec ID/Info                            : UTF-8 Plain Text
Duration                                 : 1 h 33 min
Bit rate                                 : 34 b/s
Count of elements                        : 757
Stream size                              : 23.3 KiB (0%)
Title                                    : Chinese
Language                                 : Chinese
Default                                  : No
Forced                                   : No

Text #3
ID                                       : 5
Format                                   : PGS
Muxing mode                              : zlib
Codec ID                                 : S_HDMV/PGS
Codec ID/Info                            : Picture based subtitle format used on BDs/HD-DVDs
Duration                                 : 1 h 31 min
Bit rate                                 : 72.3 kb/s
Count of elements                        : 2819
Stream size                              : 47.4 MiB (0%)
Title                                    : Japanese
Language                                 : Japanese
Default                                  : No
Forced                                   : No

Menu
00:00:00.000                             : :Chapter 01
00:01:06.400                             : :Chapter 02
00:03:53.233                             : :Chapter 03
00:07:21.775                             : :Chapter 04
00:09:04.043                             : :Chapter 05
00:10:12.779                             : :Chapter 06
00:13:04.651                             : :Chapter 07
00:16:03.996                             : :Chapter 08
00:17:32.919                             : :Chapter 09
00:21:28.154                             : :Chapter 10
00:23:11.457                             : :Chapter 11
00:23:54.800                             : :Chapter 12
00:24:51.523                             : :Chapter 13
00:26:15.607                             : :Chapter 14
00:27:52.037                             : :Chapter 15
00:29:06.778                             : :Chapter 16
00:33:06.351                             : :Chapter 17
00:34:39.778                             : :Chapter 18
00:40:13.945                             : :Chapter 19
00:41:41.666                             : :Chapter 20
00:44:36.841                             : :Chapter 21
00:46:42.133                             : :Chapter 22
00:47:53.704                             : :Chapter 23
00:49:09.113                             : :Chapter 24
00:50:05.502                             : :Chapter 25
00:52:50.701                             : :Chapter 26
00:56:26.750                             : :Chapter 27
00:58:20.564                             : :Chapter 28
01:00:20.317                             : :Chapter 29
01:03:35.345                             : :Chapter 30
01:05:36.633                             : :Chapter 31
01:11:51.040                             : :Chapter 32
01:21:07.763                             : :Chapter 33
01:22:09.358                             : :Chapter 34
01:24:19.788                             : :Chapter 35
01:25:26.521                             : :Chapter 36
01:30:11.640                             : :Chapter 37
01:32:24.939                             : :Chapter 38
01:33:31.840                             : :Chapter 39

27d7ed877bfa2c23867284934fd23b72.png

[/url]12864e51afeb8b95e9adf682d5e24799.png

[/url]00a3bf560d6b1d0d1d1be05f5b6e0878.png

[/url]



                                                                                                                                                                                                        
                                                                                                                                                                                                                                                                                                                                                                                                                                                                                                                                                                                                                                                                                                                                                                                                                                                        
60973de052c17bfcbed5cee4936ac10e.torrent (15.49 KB, 下载次数: 0)

回复

使用道具 举报

小黑屋|西西论坛

本网站所有资源来自网络,如无意中侵犯了您的权益,请发邮件至 [email protected],立即清除相关链接

GMT+8, 2022-6-27 05:21 , Processed in 0.109221 second(s), 17 queries .

Powered by Discuz! X3.2

© 2001-2013 Comsenz Inc.

快速回复 返回顶部 返回列表