西西论坛

 找回密码
 立即注册
搜索

青色归途 We.Are.2018.JAPANESE.1080p.BluRay.x264.DTS-iKiW 11.00GB

[复制链接]
admin 发表于 2022-1-1 12:00:22 | 显示全部楼层 |阅读模式
青色归途 We.Are.2018.JAPANESE.1080p.BluRay.x264.DTS-iKiW 11.00GB                                                                                                                                                                                                                                                                                                                                                                                                                                                                                                                                        -->
帖子完整标题:青色归途 We.Are.2018.JAPANESE.1080p.BluRay.x264.DTS-iKiW 11.00GB



ddcc67bce726ea26a94780528360a95e.jpg



◎译  名 青色归途/Ao no Kaerimichi
◎片  名 青の帰り道
◎年  代 2018
◎产  地 日本
◎类  别 剧情
◎语  言 日语
◎上映日期 2018-12-07(日本)
◎豆瓣评分 6.4/10 from 554 users
◎豆瓣链接 
◎片  长 120分钟
◎导  演 藤井道人 Michihito Fujii
◎编  剧 藤井道人 Michihito Fujii
◎主  演 真野惠里菜 Erina Mano
       工藤夕贵 Youki Kudoh
       富田佳辅 Keisuke Tomita
       户塚纯贵 Junki Tozuka
       森永悠希 Yuki Morinaga
       横滨流星 Ry?sei Yokohama
       清水久留巳 Kurumi Shimizu
       秋月三佳 Mika Akizuki
       平田满 Mitsuru Hirata

◎标  签 青春 | 日本 | 日本电影 | 成长 | 真野惠里菜 | 2018 | 剧情 | 横滨流星

◎简  介

  这部影片讲述了7个年轻人的故事。故事发生在东京和日本中部的前桥市。他们中有人留在家乡,有人去东京追求梦想。他们的生活彼此交叉,各自奔向新的未来,同时把回忆留在心中。
Video
ID                                       : 1
Format                                   : AVC
Format/Info                              : Advanced Video Codec
Format profile                           :
Format settings                          : CABAC / 5 Ref Frames
Format settings, CABAC                   : Yes
Format settings, Reference frames        : 5 frames
Codec ID                                 : V_MPEG4/ISO/AVC
Duration                                 : 2 h 0 min
Bit rate                                 : 11.5 Mb/s
Width                                    : 1 920 pixels
Height                                   : 806 pixels
Display aspect ratio                     : 2.40:1
Frame rate mode                          : Constant
Frame rate                               : 23.976 (24000/1001/189150) FPS
Color space                              : YUV
Chroma subsampling                       : 4:2:0
Bit depth                                : 8 bits
Scan type                                : Progressive
Bits/(Pixel*Frame)                       : 0.310
Stream size                              : 9.71 GiB (88%)
Writing library                          : x264 core 129 r2245+704+36 8e61944 tMod+MixAQ [:2:0 X86_64]
Encoding settings                        : cabac=1 / ref=5 / deblock=1:-3:-3 / analyse=0x3:0x133 / me=umh / subme=11 / psy=1 / fade_compensate=0.00 / psy_rd=1.05:0.10 / mixed_ref=1 / me_range=64 / chroma_me=1 / trellis=2 / 8x8dct=1 / cqm=0 / deadzone=21,11 / fast_pskip=0 / chroma_qp_offset=-3 / threads=18 / lookahead_threads=3 / sliced_threads=0 / nr=0 / decimate=0 / interlaced=0 / bluray_compat=0 / constrained_intra=0 / fgo=0 / bframes=10 / b_pyramid=2 / b_adapt=2 / b_bias=0 / direct=3 / weightb=1 / open_gop=0 / weightp=2 / keyint=250 / keyint_min=23 / scenecut=40 / intra_refresh=0 / rc=2pass / mbtree=0 / bitrate=11516 / ratetol=1.0 / qcomp=0.70 / qpmin=0 / qpmax=69 / qpstep=4 / cplxblur=20.0 / qblur=0.5 / ip_ratio=1.40 / pb_ratio=1.30 / aq=1 / aq-strength=0.90 / aq-sensitivity=10.00 / aq-ifactor=1.00 / aq-pfactor=1.00 / aq-bfactor=1.00 / aq2=0
Language                                 : Japanese
Default                                  : Yes
Forced                                   : No

Audio
ID                                       : 2
Format                                   : DTS
Format/Info                              : Digital Theater Systems
Codec ID                                 : A_DTS
Duration                                 : 2 h 0 min
Bit rate mode                            : Constant
Bit rate                                 : 1 509 kb/s
Channel(s)                               : 6 channels
Channel layout                           : C L R Ls Rs LFE
Sampling rate                            : 48.0 kHz
Frame rate                               : 93.750 FPS (512 SPF)
Bit depth                                : 16 bits
Compression mode                         : Lossy
Stream size                              : 1.27 GiB (12%)
Language                                 : Japanese
Default                                  : Yes
Forced                                   : No

Text
ID                                       : 3
Format                                   : UTF-8
Codec ID                                 : S_TEXT/UTF8
Codec ID/Info                            : UTF-8 Plain Text
Duration                                 : 1 h 55 min
Bit rate                                 : 44 b/s
Count of elements                        : 1400
Stream size                              : 37.4 KiB (0%)
Language                                 : English
Default                                  : No
Forced                                   : No

Menu
00:00:00.000                             : en:第 01 章
00:17:24.042                             : en:第 02 章
00:27:52.671                             : en:第 03 章
00:47:23.590                             : en:第 04 章
01:11:28.284                             : en:第 05 章
01:41:36.048                             : en:第 06 章
02:00:49.242                             : en:第 07 章

7a97d78d883abed17e16dfafaf88dfde.png

[/url]dce9450b8132b8d8a66c3fec84c9a9d1.png

[/url]abe23d822d04e02a23c2af7a43a0055c.png

[/url]



                                                                                                                                                                                                        
                                                                                                                                                                                                                                                                                                                                                                                                                                                                                                                                                                                                                                                                                                                                                                                                                                                        
dac60d50be1f4e61c775b3ec1e3edce5.torrent (14.36 KB, 下载次数: 0)

回复

使用道具 举报

小黑屋|西西论坛

本网站所有资源来自网络,如无意中侵犯了您的权益,请发邮件至 [email protected],立即清除相关链接

GMT+8, 2022-6-27 03:42 , Processed in 0.113935 second(s), 17 queries .

Powered by Discuz! X3.2

© 2001-2013 Comsenz Inc.

快速回复 返回顶部 返回列表