西西论坛

 找回密码
 立即注册
搜索

堕落之堡 Castle.Falls.2021.720p.BluRay.x264-PiGNUS 4.07GB

[复制链接]
admin 发表于 2022-1-1 12:00:01 | 显示全部楼层 |阅读模式
堕落之堡 Castle.Falls.2021.720p.BluRay.x264-PiGNUS 4.07GB                                                                                                                                                                                                                                                                                                                                                                                                                                                                                                                                        -->
帖子完整标题:堕落之堡 Castle.Falls.2021.720p.BluRay.x264-PiGNUS 4.07GB



063f190c9eed0cd7942d87b753192e3c.jpg



◎译  名 堕落之堡
◎片  名 Castle Falls
◎年  代 2021
◎产  地 美国
◎类  别 动作 / 犯罪
◎语  言 英语
◎上映日期 2021-12-03(美国)
◎豆瓣评分 5.3/10 from 116 users
◎豆瓣链接 
◎片  长 87分钟
◎导  演 杜夫·龙格尔 Dolph Lundgren
◎编  剧 安德鲁·克劳尔 Andrew Knauer
◎主  演 斯科特·阿金斯 Scott Adkins
       杜夫·龙格尔 Dolph Lundgren
       吉姆·E·钱德勒 Jim E. Chandler
       凯文·韦恩 Kevin Wayne
       卢克·霍克斯 Luke Hawx
        Ida Lundgren
       比尔·比利翁 Bill Billions

◎标  签 犯罪 | 动作 | 美国 | 斯科特·阿金斯 | 杜夫·龙格尔 | 2021 | 电影 | 剧情

◎简  介

  由杜夫·龙格尔导演并由其与斯科特·阿金斯共同主演的《堕落之堡》(暂译)拟定于3月份开拍,讲述敌对黑帮势力计划抢走一批落在一栋公寓中的将被销毁的巨额赃款,而扼守公寓的房主却成为了他们实施计划的最大障碍。
Video
ID                                       : 1
Format                                   : AVC
Format/Info                              : Advanced Video Codec
Format profile                           :
Format settings                          : CABAC / 8 Ref Frames
Format settings, CABAC                   : Yes
Format settings, Reference frames        : 8 frames
Codec ID                                 : V_MPEG4/ISO/AVC
Duration                                 : 1 h 29 min
Bit rate                                 : 5 841 kb/s
Width                                    : 1 280 pixels
Height                                   : 534 pixels
Display aspect ratio                     : 2.40:1
Frame rate mode                          : Constant
Frame rate                               : 23.976 (24000/1001/189150) FPS
Color space                              : YUV
Chroma subsampling                       : 4:2:0
Bit depth                                : 8 bits
Scan type                                : Progressive
Bits/(Pixel*Frame)                       : 0.356
Stream size                              : 3.65 GiB (90%)
Writing library                          : x264 core 164 r3079 d9a19f0
Encoding settings                        : cabac=1 / ref=8 / deblock=1:-3:-3 / analyse=0x3:0x133 / me=umh / subme=9 / psy=1 / psy_rd=1.00:0.00 / mixed_ref=1 / me_range=16 / chroma_me=1 / trellis=2 / 8x8dct=1 / cqm=0 / deadzone=21,11 / fast_pskip=1 / chroma_qp_offset=-2 / threads=17 / lookahead_threads=1 / sliced_threads=0 / nr=0 / decimate=1 / interlaced=0 / bluray_compat=0 / constrained_intra=0 / bframes=3 / b_pyramid=2 / b_adapt=2 / b_bias=0 / direct=3 / weightb=1 / open_gop=0 / weightp=2 / keyint=250 / keyint_min=23 / scenecut=40 / intra_refresh=0 / rc_lookahead=60 / rc=crf / mbtree=1 / crf=15.0 / qcomp=0.60 / qpmin=0 / qpmax=69 / qpstep=4 / ip_ratio=1.40 / aq=1:1.00
Default                                  : Yes
Forced                                   : No

Audio
ID                                       : 2
Format                                   : AC-3
Format/Info                              : Audio Coding 3
Commercial name                          : Dolby Digital
Codec ID                                 : A_AC3
Duration                                 : 1 h 29 min
Bit rate mode                            : Constant
Bit rate                                 : 640 kb/s
Channel(s)                               : 6 channels
Channel layout                           : L R C LFE Ls Rs
Sampling rate                            : 48.0 kHz
Frame rate                               : 31.250 FPS (1536 SPF)
Compression mode                         : Lossy
Stream size                              : 410 MiB (10%)
Language                                 : English
Service kind                             : Complete Main
Default                                  : Yes
Forced                                   : No

Text
ID                                       : 3
Format                                   : PGS
Muxing mode                              : zlib
Codec ID                                 : S_HDMV/PGS
Codec ID/Info                            : Picture based subtitle format used on BDs/HD-DVDs
Duration                                 : 1 h 28 min
Bit rate                                 : 35.6 kb/s
Count of elements                        : 2666
Stream size                              : 22.5 MiB (1%)
Title                                    : English SDH
Language                                 : English
Default                                  : No
Forced                                   : No

Menu
00:00:00.000                             : en:Chapter 01
00:09:28.777                             : en:Chapter 02
00:18:15.636                             : en:Chapter 03
00:26:34.468                             : en:Chapter 04
00:33:41.436                             : en:Chapter 05
00:41:31.322                             : en:Chapter 06
00:48:32.284                             : en:Chapter 07
00:52:09.793                             : en:Chapter 08
00:56:51.158                             : en:Chapter 09
01:05:27.799                             : en:Chapter 10
01:13:03.296                             : en:Chapter 11
01:24:06.416                             : en:Chapter 12
01:29:33.368                             : en:Chapter 13

a41ddbacf0b2018d6b6f53f34fbe0eee.jpg





                                                                                                                                                                                                        
                                                                                                                                                                                                                                                                                                                                                                                                                                                                                                                                                                                                                                                                                                                                                                                                                                                        
46f9bc69103b0a782cce12ccc3ac0228.torrent (21.08 KB, 下载次数: 0)

回复

使用道具 举报

小黑屋|西西论坛

本网站所有资源来自网络,如无意中侵犯了您的权益,请发邮件至 [email protected],立即清除相关链接

GMT+8, 2022-6-29 06:09 , Processed in 0.092171 second(s), 17 queries .

Powered by Discuz! X3.2

© 2001-2013 Comsenz Inc.

快速回复 返回顶部 返回列表