西西论坛

 找回密码
 立即注册
搜索

食肉动物 Carnivores.2018.FRENCH.1080p.BluRay.x264.DTS-SbR 9.89GB

[复制链接]
admin 发表于 2021-12-31 10:00:32 | 显示全部楼层 |阅读模式
食肉动物 Carnivores.2018.FRENCH.1080p.BluRay.x264.DTS-SbR 9.89GB                                                                                                                                                                                                                                                                                                                                                                                                                                                                                                                                        -->
帖子完整标题:食肉动物 Carnivores.2018.FRENCH.1080p.BluRay.x264.DTS-SbR 9.89GB





◎译  名 食肉动物
◎片  名 Carnivores
◎年  代 2018
◎产  地 法国,比利时
◎类  别 剧情 / 惊悚
◎语  言 法语
◎上映日期 2018-03-28(法国)
◎豆瓣评分 6.2/10 from 209 users
◎豆瓣链接 
◎片  长 98分钟
◎导  演 杰瑞米·雷乃 Jérémie Renier / 亚尼克·雷乃 Yannick Renier
◎编  剧 杰瑞米·雷乃 Jérémie Renier / 亚尼克·雷乃 Yannick Renier / 艾格尼丝·德·萨西 Agnès de Sacy / 耶尔·朗曼 Ya?l Langmann
◎主  演 莱拉·贝蒂 Le?la Bekhti
       巴斯蒂安·布永 Bastien Bouillon
       约翰·海尔登贝格 Johan Heldenbergh
       西娅姆·阿巴斯 Hiam Abbass
       琪塔·昂赫 Zita Hanrot
       克里斯托弗·塞尔梅特 Christophe Sermet

◎标  签 法国 | 人性 | 惊悚 | 2018 | 法国电影 | 悬疑 | 剧情 | 电影

◎简  介

  年近三十的莫娜一直在为实现自己的演员梦而努力,但时光飞逝,她仍然没有成功。没有钱也没有资 源的她,无奈只能搬到了妹妹姗姆家里。姗姆和姐姐截然不同,是知名女演员,法国影坛冉冉升起的 明星,前途一片大好,和男友育有一子,三人幸福地住在一起。在拍完最近一部电影后,精疲力尽的 姗姆主动提议让莫娜担任她的助手。莫娜逐渐发现,姗姆和她一样,都为自己的弱点和人生所困。莫 娜追求的理想生活却慢慢让姗姆忍无可忍,甚至因此患上了神经衰弱,忽视了自己作为演员、伴侣和 母亲应尽的责任,最终失去了自我。莫娜瞄准了这个机会,决定趁机介入,不惜一切代价实现自己的 想法……嫉妒驱使下的莫娜到底能走多远?

◎获奖情况

  第21届上海国际电影节 ?(2018)
  金爵奖最佳影片(提名) 杰瑞米·雷乃?/?亚尼克·雷乃
  金爵奖艺术贡献奖 杰瑞米·雷纳?/?亚尼克·雷乃
Video
ID                                       : 1
Format                                   : AVC
Format/Info                              : Advanced Video Codec
Format profile                           :
Format settings                          : CABAC / 4 Ref Frames
Format settings, CABAC                   : Yes
Format settings, Reference frames        : 4 frames
Codec ID                                 : V_MPEG4/ISO/AVC
Duration                                 : 1 h 26 min
Bit rate                                 : 14.9 Mb/s
Width                                    : 1 920 pixels
Height                                   : 804 pixels
Display aspect ratio                     : 2.40:1
Frame rate mode                          : Constant
Frame rate                               : 24.000 FPS
Color space                              : YUV
Chroma subsampling                       : 4:2:0
Bit depth                                : 8 bits
Scan type                                : Progressive
Bits/(Pixel*Frame)                       : 0.401
Stream size                              : 8.97 GiB (91%)
Writing library                          : x264 core 164 r3079+60M cd8c3e1 devel [(8 & 10) X86_64]
Encoding settings                        : cabac=1 / ref=4 / deblock=1:-3:-3 / analyse=0x3:0x133 / me=umh / subme=11 / psy=1 / fade_compensate=0.00 / psy_rd=1.00:0.00 / mixed_ref=1 / me_range=32 / chroma_me=1 / trellis=2 / 8x8dct=1 / cqm=0 / deadzone=21,11 / fast_pskip=1 / chroma_qp_offset=-2 / threads=32 / lookahead_threads=6 / sliced_threads=0 / nr=0 / decimate=1 / interlaced=0 / bluray_compat=0 / constrained_intra=0 / fgo=0 / bframes=10 / b_pyramid=2 / b_adapt=2 / b_bias=0 / direct=3 / weightb=1 / open_gop=0 / weightp=2 / keyint=250 / keyint_min=24 / scenecut=40 / intra_refresh=0 / rc=crf / mbtree=0 / crf=15.0000 / qcomp=0.65 / qpmin=0:0:0 / qpmax=69:69:69 / qpstep=4 / ip_ratio=1.25 / pb_ratio=1.20 / aq=1:0.60 / aq-sensitivity=10.00 / aq-factor=1.00:1.00:1.00 / aq2=0 / aq3=0
Language                                 : French
Default                                  : Yes
Forced                                   : No

Audio
ID                                       : 2
Format                                   : DTS
Format/Info                              : Digital Theater Systems
Codec ID                                 : A_DTS
Duration                                 : 1 h 26 min
Bit rate mode                            : Constant
Bit rate                                 : 1 509 kb/s
Channel(s)                               : 6 channels
Channel layout                           : C L R Ls Rs LFE
Sampling rate                            : 48.0 kHz
Frame rate                               : 93.750 FPS (512 SPF)
Bit depth                                : 24 bits
Compression mode                         : Lossy
Stream size                              : 933 MiB (9%)
Language                                 : French
Default                                  : Yes
Forced                                   : No

Text #1
ID                                       : 3
Format                                   : ASS
Codec ID                                 : S_TEXT/ASS
Codec ID/Info                            : Advanced Sub Station Alpha
Duration                                 : 1 h 21 min
Bit rate                                 : 50 b/s
Count of elements                        : 593
Compression mode                         : Lossless
Stream size                              : 30.2 KiB (0%)
Language                                 : English
Default                                  : No
Forced                                   : No

Text #2
ID                                       : 4
Format                                   : UTF-8
Codec ID                                 : S_TEXT/UTF8
Codec ID/Info                            : UTF-8 Plain Text
Duration                                 : 1 h 21 min
Bit rate                                 : 29 b/s
Count of elements                        : 593
Stream size                              : 17.6 KiB (0%)
Language                                 : English
Default                                  : No
Forced                                   : No

Text #3
ID                                       : 5
Format                                   : ASS
Codec ID                                 : S_TEXT/ASS
Codec ID/Info                            : Advanced Sub Station Alpha
Duration                                 : 1 h 22 min
Bit rate                                 : 134 b/s
Count of elements                        : 1153
Compression mode                         : Lossless
Stream size                              : 81.1 KiB (0%)
Language                                 : French
Default                                  : No
Forced                                   : No

Menu
00:00:00.000                             : en:Chapter 01
00:13:55.708                             : en:Chapter 02
00:27:09.375                             : en:Chapter 03
00:39:43.458                             : en:Chapter 04
00:54:02.917                             : en:Chapter 05
01:08:20.875                             : en:Chapter 06

4750aca04e9f73569d44162c0f20c20f.png

[/url]c44f5d0434b461f68f9f8083e973000f.png

[/url]



                                                                                                                                                                                                        
                                                                                                                                                                                                                                                                                                                                                                                                                                                                                                                                                                                                                                                                                                                                                                                                                                                        
07990066b4d5304a9fb7839282f1c772.torrent (25.33 KB, 下载次数: 0)

回复

使用道具 举报

小黑屋|西西论坛

本网站所有资源来自网络,如无意中侵犯了您的权益,请发邮件至 [email protected],立即清除相关链接

GMT+8, 2022-1-20 03:20 , Processed in 0.122602 second(s), 17 queries .

Powered by Discuz! X3.2

© 2001-2013 Comsenz Inc.

快速回复 返回顶部 返回列表