西西论坛

 找回密码
 立即注册
搜索

美国派9/美国派:少女规则 American.Pie.Presents.Girls.Rules.2020.1080p.BluRay.x264 ...

[复制链接]
admin 发表于 2021-12-31 10:00:29 | 显示全部楼层 |阅读模式
美国派9/美国派:少女规则 American.Pie.Presents.Girls.Rules.2020.1080p.BluRay.x264.DD5.1-BdC                                                                                                                                                                                                                                                                                                                                                                                                                                                                                                                                        -->
帖子完整标题:美国派9/美国派:少女规则 American.Pie.Presents.Girls.Rules.2020.1080p.BluRay.x264.DD5.1-BdC 12.16GB





◎译  名 美国派9/美国派:少女规则/美国派(番外篇)5:少女规则
◎片  名 American Pie Presents: Girls' Rules
◎年  代 2020
◎产  地 美国
◎类  别 喜剧 / 爱情
◎语  言 英语
◎上映日期 2020-10-06(美国)
◎豆瓣评分 4.2/10 from 1057 users
◎豆瓣链接 
◎片  长 95分钟
◎导  演 麦克·艾略特 Mike Elliot
◎编  剧 布赖恩·韦弗 Blayne Weaver / 大卫·H·斯坦伯格 David H. Steinberg
◎主  演 麦迪森·佩蒂丝 Madison Pettis
       丽兹·布罗德威 Lizze Broadway
       佩珀·柯达 Piper Curda
       达伦·巴内特 Darren Barnet
       巴瑞·波斯威克 Barry Bostwick
       扎克瑞·戈登 Zachary Gordon

◎标  签 喜剧 | 美国 | 青春 | 2020 | 美国电影 |  | 电影 | netflix原创电影

◎简  介

  这是东大瀑布中学的最后一年。 安妮(Annie),凯拉(Kayla),米歇尔(Michelle)和斯蒂芬妮(Stephanie)决定用她们的女性力量在这最后一年获得她们最想要的。
Video
ID                                       : 1
Format                                   : AVC
Format/Info                              : Advanced Video Codec
Format profile                           :
Format settings                          : CABAC / 4 Ref Frames
Format settings, CABAC                   : Yes
Format settings, Reference frames        : 4 frames
Codec ID                                 : V_MPEG4/ISO/AVC
Duration                                 : 1 h 35 min
Bit rate                                 : 17.4 Mb/s
Width                                    : 1 920 pixels
Height                                   : 1 080 pixels
Display aspect ratio                     : 16:9
Frame rate mode                          : Constant
Frame rate                               : 23.976 (24000/1001/189150) FPS
Color space                              : YUV
Chroma subsampling                       : 4:2:0
Bit depth                                : 8 bits
Scan type                                : Progressive
Bits/(Pixel*Frame)                       : 0.350
Stream size                              : 11.6 GiB (95%)
Writing library                          : x264 core 161 r3033 0d754ec
Encoding settings                        : cabac=1 / ref=4 / deblock=1:-3:-3 / analyse=0x3:0x133 / me=umh / subme=10 / psy=1 / psy_rd=1.00:0.00 / mixed_ref=1 / me_range=32 / chroma_me=1 / trellis=2 / 8x8dct=1 / cqm=0 / deadzone=21,11 / fast_pskip=0 / chroma_qp_offset=-2 / threads=12 / lookahead_threads=2 / sliced_threads=0 / nr=0 / decimate=0 / interlaced=0 / bluray_compat=0 / constrained_intra=0 / bframes=8 / b_pyramid=2 / b_adapt=2 / b_bias=0 / direct=3 / weightb=1 / open_gop=0 / weightp=2 / keyint=240 / keyint_min=23 / scenecut=40 / intra_refresh=0 / rc_lookahead=60 / rc=2pass / mbtree=0 / bitrate=17399 / ratetol=1.0 / qcomp=0.60 / qpmin=0 / qpmax=69 / qpstep=4 / cplxblur=20.0 / qblur=0.5 / vbv_maxrate=62500 / vbv_bufsize=78125 / nal_hrd=none / filler=0 / ip_ratio=1.40 / pb_ratio=1.30 / aq=3:0.80
Default                                  : Yes
Forced                                   : No
Color range                              : Limited
Color primaries                          : BT.709
Transfer characteristics                 : BT.709
Matrix coefficients                      : BT.709

Audio
ID                                       : 2
Format                                   : AC-3
Format/Info                              : Audio Coding 3
Commercial name                          : Dolby Digital
Codec ID                                 : A_AC3
Duration                                 : 1 h 35 min
Bit rate mode                            : Constant
Bit rate                                 : 640 kb/s
Channel(s)                               : 6 channels
Channel layout                           : L R C LFE Ls Rs
Sampling rate                            : 48.0 kHz
Frame rate                               : 31.250 FPS (1536 SPF)
Compression mode                         : Lossy
Stream size                              : 437 MiB (4%)
Language                                 : English
Service kind                             : Complete Main
Default                                  : Yes
Forced                                   : No

Text #1
ID                                       : 3
Format                                   : UTF-8
Codec ID                                 : S_TEXT/UTF8
Codec ID/Info                            : UTF-8 Plain Text
Duration                                 : 1 h 34 min
Bit rate                                 : 84 b/s
Count of elements                        : 1848
Stream size                              : 59.1 KiB (0%)
Language                                 : English
Default                                  : Yes
Forced                                   : No

Text #2
ID                                       : 4
Format                                   : UTF-8
Codec ID                                 : S_TEXT/UTF8
Codec ID/Info                            : UTF-8 Plain Text
Duration                                 : 1 h 34 min
Bit rate                                 : 92 b/s
Count of elements                        : 2022
Stream size                              : 64.0 KiB (0%)
Title                                    : SDH
Language                                 : English
Default                                  : No
Forced                                   : No

Text #3
ID                                       : 5
Format                                   : UTF-8
Codec ID                                 : S_TEXT/UTF8
Codec ID/Info                            : UTF-8 Plain Text
Duration                                 : 1 h 35 min
Bit rate                                 : 83 b/s
Count of elements                        : 1717
Stream size                              : 58.3 KiB (0%)
Language                                 : Turkish
Default                                  : No
Forced                                   : No

Text #4
ID                                       : 6
Format                                   : PGS
Muxing mode                              : zlib
Codec ID                                 : S_HDMV/PGS
Codec ID/Info                            : Picture based subtitle format used on BDs/HD-DVDs
Duration                                 : 1 h 34 min
Bit rate                                 : 62.2 kb/s
Count of elements                        : 4114
Stream size                              : 42.2 MiB (0%)
Language                                 : English
Default                                  : No
Forced                                   : No

Text #5
ID                                       : 7
Format                                   : UTF-8
Codec ID                                 : S_TEXT/UTF8
Codec ID/Info                            : UTF-8 Plain Text
Duration                                 : 1 h 34 min
Bit rate                                 : 82 b/s
Count of elements                        : 1569
Stream size                              : 57.2 KiB (0%)
Language                                 : Malayalam
Default                                  : No
Forced                                   : No

Text #6
ID                                       : 8
Format                                   : UTF-8
Codec ID                                 : S_TEXT/UTF8
Codec ID/Info                            : UTF-8 Plain Text
Duration                                 : 1 h 34 min
Bit rate                                 : 69 b/s
Count of elements                        : 1661
Stream size                              : 48.3 KiB (0%)
Language                                 : Danish
Default                                  : No
Forced                                   : No

Text #7
ID                                       : 9
Format                                   : PGS
Muxing mode                              : zlib
Codec ID                                 : S_HDMV/PGS
Codec ID/Info                            : Picture based subtitle format used on BDs/HD-DVDs
Duration                                 : 1 h 34 min
Bit rate                                 : 56.6 kb/s
Count of elements                        : 3799
Stream size                              : 38.4 MiB (0%)
Language                                 : Chinese
Default                                  : No
Forced                                   : No

Text #8
ID                                       : 10
Format                                   : PGS
Muxing mode                              : zlib
Codec ID                                 : S_HDMV/PGS
Codec ID/Info                            : Picture based subtitle format used on BDs/HD-DVDs
Duration                                 : 1 h 34 min
Bit rate                                 : 57.7 kb/s
Count of elements                        : 3799
Stream size                              : 39.2 MiB (0%)
Language                                 : Chinese
Default                                  : No
Forced                                   : No

Text #9
ID                                       : 11
Format                                   : PGS
Muxing mode                              : zlib
Codec ID                                 : S_HDMV/PGS
Codec ID/Info                            : Picture based subtitle format used on BDs/HD-DVDs
Duration                                 : 1 h 34 min
Bit rate                                 : 91.0 kb/s
Count of elements                        : 3799
Stream size                              : 61.8 MiB (0%)
Language                                 : Chinese
Default                                  : No
Forced                                   : No

Text #10
ID                                       : 12
Format                                   : PGS
Muxing mode                              : zlib
Codec ID                                 : S_HDMV/PGS
Codec ID/Info                            : Picture based subtitle format used on BDs/HD-DVDs
Duration                                 : 1 h 34 min
Bit rate                                 : 92.1 kb/s
Count of elements                        : 3799
Stream size                              : 62.6 MiB (0%)
Language                                 : Chinese
Default                                  : No
Forced                                   : No

Menu
00:00:00.000                             : :Chapter 01
00:10:01.309                             : :Chapter 02
00:20:01.951                             : :Chapter 03
00:30:02.718                             : :Chapter 04
00:40:00.148                             : :Chapter 05
00:50:04.710                             : :Chapter 06
01:00:04.726                             : :Chapter 07
01:10:03.074                             : :Chapter 08
01:20:00.129                             : :Chapter 09
01:30:05.483                             : :Chapter 10
01:31:53.967                             : :Chapter 11

0fc7775798d69e34cb92f95110233a02.png

[/url]0c82aa85f3c998bb20b36cab47434ced.png

[/url]dbbfd8f9bdb0b7dd8ec41eb9d47ac1ec.png

[/url]



                                                                                                                                                                                                        
                                                                                                                                                                                                                                                                                                                                                                                                                                                                                                                                                                                                                                                                                                                                                                                                                                                        
9db273e557b37678a56576e9f35d943b.torrent (15.86 KB, 下载次数: 0)

回复

使用道具 举报

小黑屋|西西论坛

本网站所有资源来自网络,如无意中侵犯了您的权益,请发邮件至 [email protected],立即清除相关链接

GMT+8, 2022-6-27 03:32 , Processed in 0.134026 second(s), 17 queries .

Powered by Discuz! X3.2

© 2001-2013 Comsenz Inc.

快速回复 返回顶部 返回列表