西西论坛

 找回密码
 立即注册
搜索

天外飞仙/我的继母是外星人 My.Stepmother.Is.an.Alien.1988.1080p.BluRay.x264.FLAC2 ...

[复制链接]
admin 发表于 2021-12-31 10:00:26 | 显示全部楼层 |阅读模式
天外飞仙/我的继母是外星人 My.Stepmother.Is.an.Alien.1988.1080p.BluRay.x264.FLAC2.0-NTb 13.70                                                                                                                                                                                                                                                                                                                                                                                                                                                                                                                                        -->
帖子完整标题:天外飞仙/我的继母是外星人 My.Stepmother.Is.an.Alien.1988.1080p.BluRay.x264.FLAC2.0-NTb 13.70GB





◎译  名 天外飞仙/我的继母是外星人/我的继母是异形
◎片  名 My Stepmother Is an Alien
◎年  代 1988
◎产  地 美国
◎类  别 喜剧 / 科幻
◎语  言 英语
◎上映日期 1988-12-09
◎豆瓣评分 6.3/10 from 345 users
◎豆瓣链接 
◎片  长 105 分钟
◎导  演 理查德·本杰明 Richard Benjamin
◎编  剧 赫舍尔·魏因格罗德 Herschel Weingrod / 蒂莫西·哈里斯 Timothy Harris / 乔纳森·雷诺兹 Jonathan Reynolds
◎主  演 丹·艾克罗伊德 Dan Aykroyd
       金·贝辛格 Kim Basinger
       艾丽森·汉妮根 Alyson Hannigan
       乔恩·拉威茨 Jon Lovitz
       赛斯·格林 Seth Green
       Tanya Fenmore Tanya Fenmore
       哈里·谢尔 Harry Shearer
       苏西·帕尔克森 Suzie Plakson
       朱丽叶特·刘易斯 Juliette Lewis
       Robert Benedetti Robert Benedetti
       阿尔·伯恩 Earl Boen
       彼得·布罗米洛 Peter Bromilow
       托尼·杰 Tony Jay
       Jim Jackman Jim Jackman
       约瑟夫·梅赫尔 Joseph Maher
       安·普伦蒂斯 Ann Prentiss

◎标  签 科幻 | 喜剧 | 美国 | 1988 | 美国电影 | 外星人 | 电影 | 生活

◎简  介

  史蒂文(丹艾克洛德,「 福祿雙霸天2000 」、「 另類殺手 」)是個個性內向的天文學家,也是個鰥居的單親父親,當他的實驗在陰錯陽差下將一股巨大的能量送進太空時,他萬萬沒想到竟會對另一個星球造成為威脅,引起他們的恐慌,因而派出一位特使前來地球調查原因;這位特使為了方便調查,遂化身身材火辣的性感美女(奧斯卡最佳女配角,「 鐵面特警隊 」、「夢遊非洲」)接近史蒂文,想從他口中套出答案;飛來豔福的史蒂文愛上了這位舉止詭異的美女,因而向她求婚,讓她成為女兒的繼母,而外星美女也愛上了這位害羞的天文學家--和性愛--但她能找出那股能量的起因,解救母星的危機,並打消上級為以絕後患而欲將地球毀滅的決定嗎?本片是由理查班傑明(「 1996 麻雀變鳳凰 」、「 風月俏佳人 」)執導。
Video
ID                                       : 6
Format                                   : AVC
Format/Info                              : Advanced Video Codec
Format profile                           :
Format settings                          : CABAC / 4 Ref Frames
Format settings, CABAC                   : Yes
Format settings, Reference frames        : 4 frames
Codec ID                                 : V_MPEG4/ISO/AVC
Duration                                 : 1 h 47 min
Bit rate                                 : 17.2 Mb/s
Width                                    : 1 920 pixels
Height                                   : 1 036 pixels
Display aspect ratio                     : 1.85:1
Frame rate mode                          : Constant
Frame rate                               : 23.976 (24000/1001/189150) FPS
Color space                              : YUV
Chroma subsampling                       : 4:2:0
Bit depth                                : 8 bits
Scan type                                : Progressive
Bits/(Pixel*Frame)                       : 0.361
Stream size                              : 13.0 GiB (95%)
Writing library                          : x264 core 164 r3065+62M b012ed0 devel [(8 & 10) X86_64]
Encoding settings                        : cabac=1 / ref=4 / deblock=1:-3:-3 / analyse=0x3:0x133 / me=umh / subme=10 / psy=1 / fade_compensate=0.00 / psy_rd=1.00:0.00 / mixed_ref=1 / me_range=24 / chroma_me=1 / trellis=2 / 8x8dct=1 / cqm=0 / deadzone=21,11 / fast_pskip=0 / chroma_qp_offset=-2 / threads=24 / lookahead_threads=4 / sliced_threads=0 / nr=0 / decimate=0 / interlaced=0 / bluray_compat=0 / constrained_intra=0 / fgo=0 / bframes=9 / b_pyramid=2 / b_adapt=2 / b_bias=0 / direct=3 / weightb=1 / open_gop=0 / weightp=2 / keyint=250 / keyint_min=23 / scenecut=40 / intra_refresh=0 / rc_lookahead=60 / rc=crf / mbtree=0 / crf=19.0000 / qcomp=0.60 / qpmin=0:0:0 / qpmax=69:69:69 / qpstep=4 / vbv_maxrate=62500 / vbv_bufsize=78125 / crf_max=0.0 / nal_hrd=none / filler=0 / ip_ratio=1.30 / pb_ratio=1.20 / aq=3:0.70 / aq-sensitivity=10.00 / aq-factor=1.00:1.00:1.00 / aq2=0 / aq3=0
Language                                 : English
Default                                  : Yes
Forced                                   : No
Color range                              : Limited
Matrix coefficients                      : BT.709

Audio #1
ID                                       : 1
Format                                   : FLAC
Format/Info                              : Free Lossless Audio Codec
Codec ID                                 : A_FLAC
Duration                                 : 1 h 47 min
Bit rate mode                            : Variable
Bit rate                                 : 471 kb/s
Channel(s)                               : 2 channels
Channel layout                           : L R
Sampling rate                            : 48.0 kHz
Frame rate                               : 11.719 FPS (4096 SPF)
Bit depth                                : 16 bits
Compression mode                         : Lossless
Stream size                              : 363 MiB (3%)
Writing library                          : libFLAC 1.3.3 (UTC 2019-08-04)
Language                                 : English
Default                                  : Yes
Forced                                   : No

Audio #2
ID                                       : 2
Format                                   : FLAC
Format/Info                              : Free Lossless Audio Codec
Codec ID                                 : A_FLAC
Duration                                 : 1 h 47 min
Bit rate mode                            : Variable
Bit rate                                 : 446 kb/s
Channel(s)                               : 2 channels
Channel layout                           : L R
Sampling rate                            : 48.0 kHz
Frame rate                               : 11.719 FPS (4096 SPF)
Bit depth                                : 16 bits
Compression mode                         : Lossless
Stream size                              : 345 MiB (2%)
Title                                    : Commentary by Critic Brian Reesman.
Writing library                          : libFLAC 1.3.3 (UTC 2019-08-04)
Language                                 : English
Default                                  : No
Forced                                   : No

Text #1
ID                                       : 3
Format                                   : UTF-8
Codec ID                                 : S_TEXT/UTF8
Codec ID/Info                            : UTF-8 Plain Text
Duration                                 : 1 h 47 min
Bit rate                                 : 62 b/s
Count of elements                        : 1539
Stream size                              : 49.2 KiB (0%)
Language                                 : English
Default                                  : No
Forced                                   : No

Text #2
ID                                       : 4
Format                                   : UTF-8
Codec ID                                 : S_TEXT/UTF8
Codec ID/Info                            : UTF-8 Plain Text
Duration                                 : 1 h 47 min
Bit rate                                 : 68 b/s
Count of elements                        : 1716
Stream size                              : 53.9 KiB (0%)
Title                                    : SDH
Language                                 : English
Default                                  : No
Forced                                   : No

Text #3
ID                                       : 5
Format                                   : PGS
Muxing mode                              : zlib
Codec ID                                 : S_HDMV/PGS
Codec ID/Info                            : Picture based subtitle format used on BDs/HD-DVDs
Duration                                 : 1 h 47 min
Bit rate                                 : 39.1 kb/s
Count of elements                        : 3432
Stream size                              : 30.1 MiB (0%)
Title                                    : PGS
Language                                 : English
Default                                  : No
Forced                                   : No

Menu
00:00:00.000                             : 1. Start
00:02:56.092                             : 2. Dr. Steven Mills
00:06:52.370                             : 3. Sending a Signal
00:12:34.003                             : 4. En Route
00:16:45.462                             : 5. Celeste Martin
00:17:49.359                             : 6. Ron\'s Party
00:26:23.039                             : 7. Back at the Lab
00:29:38.943                             : 8. Kissing Celeste
00:38:19.714                             : 9. \"What is sex?\"
00:41:00.916                             : 10. Fireworks
00:47:22.005                             : 11. Jimmy Durante
00:50:29.651                             : 12. Steve Proposes
00:52:42.409                             : 13. Council Meeting
00:55:19.232                             : 14. Pre-wedding
00:58:34.302                             : 15. The Ceremony
01:04:10.513                             : 16. Carl Sagan Calls
01:05:28.925                             : 17. Grocery Shopping
01:08:30.898                             : 18. Obseerving Celeste
01:09:36.172                             : 19. Breakfast
01:13:52.302                             : 20. Celeste Explains
01:16:17.030                             : 21. Non-believer
01:18:11.353                             : 22. Saving Jessie
01:20:34.746                             : 23. 1,296 Years Old
01:25:41.052                             : 24. Secret Orders
01:28:47.113                             : 25. Wildcard
01:31:15.052                             : 26. \"Get rid of the bag!\"
01:33:08.624                             : 27. Council\'s Decision
01:36:47.968                             : 28. Ron\'s Sacrifice
01:43:18.233                             : 29. End Credits

34c7704724e5647a1978a5fbe3218b04.png

[/url]



                                                                                                                                                                                                        
                                                                                                                                                                                                                                                                                                                                                                                                                                                                                                                                                                                                                                                                                                                                                                                                                                                        
2641c041dd5d863ef67f8a19e448afbf.torrent (17.76 KB, 下载次数: 0)

回复

使用道具 举报

小黑屋|西西论坛

本网站所有资源来自网络,如无意中侵犯了您的权益,请发邮件至 [email protected],立即清除相关链接

GMT+8, 2022-1-20 04:55 , Processed in 0.135867 second(s), 17 queries .

Powered by Discuz! X3.2

© 2001-2013 Comsenz Inc.

快速回复 返回顶部 返回列表