西西论坛

 找回密码
 立即注册
搜索

穿梭夜激情 The.Murder.Clinic.1966.ITALIAN.1080p.BluRay.x264.AAC2.0-HANDJOB 6.67G ...

[复制链接]
admin 发表于 2021-12-31 10:00:22 | 显示全部楼层 |阅读模式
穿梭夜激情 The.Murder.Clinic.1966.ITALIAN.1080p.BluRay.x264.AAC2.0-HANDJOB 6.67GB                                                                                                                                                                                                                                                                                                                                                                                                                                                                                                                                        -->
帖子完整标题:穿梭夜激情 The.Murder.Clinic.1966.ITALIAN.1080p.BluRay.x264.AAC2.0-HANDJOB 6.67GB





◎译  名 穿梭夜激情/Die M?rderklinik/Night of Terrors
◎片  名 La lama nel corpo
◎年  代 1966
◎产  地 意大利,法国
◎类  别 恐怖
◎语  言 意大利语
◎上映日期 1966-03-17
◎豆瓣评分 /10 from 0 users
◎豆瓣链接 
◎片  长 USA: 75 分钟(re-release) (1972)
◎导  演 Elio Scardamaglia Elio Scardamaglia
◎编  剧 耶尔迈斯托·加斯塔尔迪 Ernesto Gastaldi / 卢西亚诺·马蒂诺 Luciano Martino
◎主  演 Barbara Wilson Barbara Wilson
       威廉姆·伯格 William Berger
       菲利普·埃尔桑 Philippe Hersent
       哈丽特·梅丁 Harriet Medin
       弗朗索瓦丝·佩武 Fran?oise Prévost
       玛丽杨 Mary Young

◎标  签 意大利 | Giallo | 美国电影 | 犯罪 | 意大利电影 | 悬疑 | cinema | bis

◎简  介

  Patients and staff of an isolated mental hospital are being killed off by a hooded maniac who stalks the halls.
Video
ID                                       : 1
Format                                   : AVC
Format/Info                              : Advanced Video Codec
Format profile                           :
Format settings                          : CABAC / 5 Ref Frames
Format settings, CABAC                   : Yes
Format settings, Reference frames        : 5 frames
Codec ID                                 : V_MPEG4/ISO/AVC
Duration                                 : 1 h 26 min
Bit rate                                 : 10.7 Mb/s
Width                                    : 1 920 pixels
Height                                   : 824 pixels
Display aspect ratio                     : 2.35:1
Frame rate mode                          : Constant
Frame rate                               : 23.976 (24000/1001/189150) FPS
Color space                              : YUV
Chroma subsampling                       : 4:2:0
Bit depth                                : 8 bits
Scan type                                : Progressive
Bits/(Pixel*Frame)                       : 0.282
Stream size                              : 6.50 GiB (97%)
Writing library                          : x264 core 163 r3060 5db6aa6
Encoding settings                        : cabac=1 / ref=5 / deblock=1:-3:-3 / analyse=0x3:0x133 / me=umh / subme=10 / psy=1 / psy_rd=1.00:0.00 / mixed_ref=1 / me_range=32 / chroma_me=1 / trellis=2 / 8x8dct=1 / cqm=0 / deadzone=21,11 / fast_pskip=0 / chroma_qp_offset=-2 / threads=24 / lookahead_threads=6 / sliced_threads=0 / nr=0 / decimate=0 / interlaced=0 / bluray_compat=0 / constrained_intra=0 / bframes=16 / b_pyramid=2 / b_adapt=2 / b_bias=0 / direct=3 / weightb=1 / open_gop=0 / weightp=2 / keyint=240 / keyint_min=24 / scenecut=40 / intra_refresh=0 / rc_lookahead=60 / rc=crf / mbtree=0 / crf=22.0 / qcomp=0.70 / qpmin=0 / qpmax=69 / qpstep=4 / vbv_maxrate=62500 / vbv_bufsize=78125 / crf_max=0.0 / nal_hrd=none / filler=0 / ip_ratio=1.40 / pb_ratio=1.30 / aq=2:1.00
Default                                  : Yes
Forced                                   : No
Color range                              : Limited
Color primaries                          : BT.709
Transfer characteristics                 : BT.709
Matrix coefficients                      : BT.709

Audio #1
ID                                       : 2
Format                                   : AAC LC
Format/Info                              : Advanced Audio Codec Low Complexity
Codec ID                                 : A_AAC-2
Duration                                 : 1 h 26 min
Bit rate                                 : 137 kb/s
Channel(s)                               : 1 channel
Channel layout                           : C
Sampling rate                            : 48.0 kHz
Frame rate                               : 46.875 FPS (1024 SPF)
Compression mode                         : Lossy
Stream size                              : 85.2 MiB (1%)
Language                                 : Italian
Default                                  : Yes
Forced                                   : No

Audio #2
ID                                       : 3
Format                                   : AAC LC
Format/Info                              : Advanced Audio Codec Low Complexity
Codec ID                                 : A_AAC-2
Duration                                 : 1 h 26 min
Bit rate                                 : 132 kb/s
Channel(s)                               : 1 channel
Channel layout                           : C
Sampling rate                            : 48.0 kHz
Frame rate                               : 46.875 FPS (1024 SPF)
Compression mode                         : Lossy
Stream size                              : 83.3 MiB (1%)
Title                                    : English Dub
Language                                 : English
Default                                  : No
Forced                                   : No

Text #1
ID                                       : 4
Format                                   : UTF-8
Codec ID                                 : S_TEXT/UTF8
Codec ID/Info                            : UTF-8 Plain Text
Duration                                 : 1 h 22 min
Bit rate                                 : 32 b/s
Count of elements                        : 576
Stream size                              : 19.9 KiB (0%)
Language                                 : English
Default                                  : Yes
Forced                                   : No

Text #2
ID                                       : 5
Format                                   : PGS
Muxing mode                              : zlib
Codec ID                                 : S_HDMV/PGS
Codec ID/Info                            : Picture based subtitle format used on BDs/HD-DVDs
Duration                                 : 1 h 22 min
Bit rate                                 : 17.3 kb/s
Count of elements                        : 1004
Stream size                              : 10.2 MiB (0%)
Language                                 : German
Default                                  : No
Forced                                   : No

Menu
00:00:00.000                             : :Chapter 1
00:07:45.924                             : :Chapter 2
00:21:25.910                             : :Chapter 3
00:29:36.608                             : :Chapter 4
00:39:30.493                             : :Chapter 5
00:48:33.035                             : :Chapter 6
01:05:53.408                             : :Chapter 7
01:18:04.305                             : :Chapter 8





                                                                                                                                                                                                        
                                                                                                                                                                                                                                                                                                                                                                                                                                                                                                                                                                                                                                                                                                                                                                                                                                                        
1e40ef4bf834a00791321c16c2d856e6.torrent (17.33 KB, 下载次数: 0)

回复

使用道具 举报

小黑屋|西西论坛

本网站所有资源来自网络,如无意中侵犯了您的权益,请发邮件至 [email protected],立即清除相关链接

GMT+8, 2022-6-27 05:15 , Processed in 0.087539 second(s), 17 queries .

Powered by Discuz! X3.2

© 2001-2013 Comsenz Inc.

快速回复 返回顶部 返回列表