西西论坛

 找回密码
 立即注册
搜索

一周的假期 A.Weeks.Vacation.1980.FRENCH.1080p.BluRay.x264-EUBDS 9.07GB

[复制链接]
admin 发表于 2021-12-31 10:00:16 | 显示全部楼层 |阅读模式
一周的假期 A.Weeks.Vacation.1980.FRENCH.1080p.BluRay.x264-EUBDS 9.07GB                                                                                                                                                                                                                                                                                                                                                                                                                                                                                                                                        -->
帖子完整标题:一周的假期 A.Weeks.Vacation.1980.FRENCH.1080p.BluRay.x264-EUBDS 9.07GB





◎译  名 一周的假期/A Week's Vacation/一周假期
◎片  名 Une semaine de vacances
◎年  代 1980
◎产  地 法国
◎类  别 剧情
◎语  言 法语
◎上映日期 1980-06-02
◎豆瓣评分 /10 from 0 users
◎豆瓣链接 
◎片  长 102 分钟
◎导  演 贝特朗·塔维涅 Bertrand Tavernier
◎编  剧 贝特朗·塔维涅 Bertrand Tavernier / 科洛·塔维涅 Colo Tavernier
◎主  演 纳塔莉·贝伊 Nathalie Baye
       热拉尔·朗万 Gérard Lanvin
       米歇尔·加拉布吕 Michel Galabru
       让·达斯特 Jean Dasté
       菲利普·莱奥塔尔 Philippe Léotard
       菲利普·努瓦雷 Philippe Noiret
       尼尔斯·塔维涅 Nils Tavernier

◎标  签 法国 | 贝特朗·塔维涅 | 法国电影 | BertrandTavernier | 1980 | 贝特朗·塔韦尼耶 | 贝特朗·塔韦尼埃 | 纳塔莉·贝伊

◎简  介

  里昂的年轻女教师劳伦斯在一周的假期里思考她的人生,她的事业……
  
  第34届戛纳电影节入围主竞赛单元
  
  第6届凯撒奖最佳女主角提名—娜塔莉贝伊

◎获奖情况

  第33届戛纳电影节 ?(1980)
  主竞赛单元金棕榈奖(提名) 贝特朗·塔维涅
Video
ID                                       : 1
Format                                   : AVC
Format/Info                              : Advanced Video Codec
Format profile                           :
Format settings                          : CABAC / 5 Ref Frames
Format settings, CABAC                   : Yes
Format settings, Reference frames        : 5 frames
Codec ID                                 : V_MPEG4/ISO/AVC
Duration                                 : 1 h 43 min
Bit rate                                 : 11.8 Mb/s
Width                                    : 1 920 pixels
Height                                   : 820 pixels
Display aspect ratio                     : 2.35:1
Frame rate mode                          : Constant
Frame rate                               : 24.000 FPS
Color space                              : YUV
Chroma subsampling                       : 4:2:0
Bit depth                                : 8 bits
Scan type                                : Progressive
Bits/(Pixel*Frame)                       : 0.313
Stream size                              : 8.52 GiB (94%)
Writing library                          : x264 core 164 r3079 d9a19f0
Encoding settings                        : cabac=1 / ref=5 / deblock=1:-3:-3 / analyse=0x3:0x133 / me=umh / subme=11 / psy=1 / psy_rd=1.02:0.00 / mixed_ref=1 / me_range=32 / chroma_me=1 / trellis=2 / 8x8dct=1 / cqm=0 / deadzone=21,11 / fast_pskip=0 / chroma_qp_offset=-2 / threads=26 / lookahead_threads=6 / sliced_threads=0 / nr=0 / decimate=0 / interlaced=0 / bluray_compat=0 / constrained_intra=0 / bframes=16 / b_pyramid=2 / b_adapt=2 / b_bias=0 / direct=3 / weightb=1 / open_gop=0 / weightp=2 / keyint=250 / keyint_min=24 / scenecut=40 / intra_refresh=0 / rc_lookahead=250 / rc=crf / mbtree=0 / crf=20.4 / qcomp=0.60 / qpmin=0 / qpmax=69 / qpstep=4 / vbv_maxrate=62500 / vbv_bufsize=78125 / crf_max=0.0 / nal_hrd=none / filler=0 / ip_ratio=1.30 / pb_ratio=1.20 / aq=3:0.80
Language                                 : English
Default                                  : Yes
Forced                                   : No
Color range                              : Limited
Color primaries                          : BT.709
Matrix coefficients                      : BT.709

Audio
ID                                       : 2
Format                                   : FLAC
Format/Info                              : Free Lossless Audio Codec
Codec ID                                 : A_FLAC
Duration                                 : 1 h 43 min
Bit rate mode                            : Variable
Bit rate                                 : 709 kb/s
Channel(s)                               : 2 channels
Channel layout                           : L R
Sampling rate                            : 48.0 kHz
Frame rate                               : 11.719 FPS (4096 SPF)
Bit depth                                : 24 bits
Compression mode                         : Lossless
Stream size                              : 524 MiB (6%)
Writing library                          : libFLAC 1.2.1 (UTC 2007-09-17)
Language                                 : French
Default                                  : Yes
Forced                                   : No

Text #1
ID                                       : 3
Format                                   : UTF-8
Codec ID                                 : S_TEXT/UTF8
Codec ID/Info                            : UTF-8 Plain Text
Duration                                 : 1 h 41 min
Bit rate                                 : 56 b/s
Count of elements                        : 1502
Stream size                              : 41.8 KiB (0%)
Language                                 : English
Default                                  : Yes
Forced                                   : Yes

Text #2
ID                                       : 4
Format                                   : PGS
Muxing mode                              : zlib
Codec ID                                 : S_HDMV/PGS
Codec ID/Info                            : Picture based subtitle format used on BDs/HD-DVDs
Duration                                 : 1 h 41 min
Bit rate                                 : 34.7 kb/s
Count of elements                        : 3005
Stream size                              : 25.1 MiB (0%)
Language                                 : English
Default                                  : No
Forced                                   : No

Text #3
ID                                       : 5
Format                                   : PGS
Muxing mode                              : zlib
Codec ID                                 : S_HDMV/PGS
Codec ID/Info                            : Picture based subtitle format used on BDs/HD-DVDs
Duration                                 : 1 h 43 min
Bit rate                                 : 42.5 kb/s
Count of elements                        : 3320
Stream size                              : 31.4 MiB (0%)
Language                                 : French
Default                                  : No
Forced                                   : No

Text #4
ID                                       : 6
Format                                   : PGS
Muxing mode                              : zlib
Codec ID                                 : S_HDMV/PGS
Codec ID/Info                            : Picture based subtitle format used on BDs/HD-DVDs
Duration                                 : 1 h 41 min
Bit rate                                 : 39.4 kb/s
Count of elements                        : 2343
Stream size                              : 28.5 MiB (0%)
Language                                 : German
Default                                  : No
Forced                                   : No

Menu
00:00:00.000                             : :Chapter 01
00:08:38.292                             : :Chapter 02
00:17:20.458                             : :Chapter 03
00:27:05.250                             : :Chapter 04
00:35:27.667                             : :Chapter 05
00:44:25.500                             : :Chapter 06
00:53:31.417                             : :Chapter 07
01:03:50.583                             : :Chapter 08
01:11:35.125                             : :Chapter 09
01:19:25.125                             : :Chapter 10
01:29:38.708                             : :Chapter 11
01:41:30.083                             : :Chapter 12

78104c8dc1cb31e83f534dd3c393bf50.png

[/url]2f2a629482034f3570cd85384bf0c63f.png

[/url]9101caa46dbd0ef998a73561f12cc6cb.png

[/url]



                                                                                                                                                                                                        
                                                                                                                                                                                                                                                                                                                                                                                                                                                                                                                                                                                                                                                                                                                                                                                                                                                        
12b6a16b00e9893cadfae13be111da34.torrent (23.29 KB, 下载次数: 0)

回复

使用道具 举报

小黑屋|西西论坛

本网站所有资源来自网络,如无意中侵犯了您的权益,请发邮件至 [email protected],立即清除相关链接

GMT+8, 2022-1-20 04:17 , Processed in 0.114400 second(s), 17 queries .

Powered by Discuz! X3.2

© 2001-2013 Comsenz Inc.

快速回复 返回顶部 返回列表