西西论坛

 找回密码
 立即注册
搜索

早上起床后 The.Morning.After.2015.1080p.BluRay.x264.AAC2.0-HANDJOB 5.45GB

[复制链接]
admin 发表于 2021-12-31 10:00:13 | 显示全部楼层 |阅读模式
早上起床后 The.Morning.After.2015.1080p.BluRay.x264.AAC2.0-HANDJOB 5.45GB                                                                                                                                                                                                                                                                                                                                                                                                                                                                                                                                        -->
帖子完整标题:早上起床后 The.Morning.After.2015.1080p.BluRay.x264.AAC2.0-HANDJOB 5.45GB



33a37ff68b02f6b1572aa340ed57de97.jpg



◎译  名 早上起床后
◎片  名 The Morning After
◎年  代 2015
◎产  地 美国
◎类  别 剧情 / 喜剧
◎语  言 英语
◎上映日期 
◎豆瓣评分 /10 from 0 users
◎豆瓣链接 
◎片  长 79分钟
◎主  演 罗伯托·阿奎尔 Roberto Aguire
       凡妮莎·李·艾维甘 Vanessa Lee Evigan
       卡梅隆·贾宝 Cameron Jebo
       斯特林·琼斯 Sterling Jones
       菲利浦·卡纳 Philipp Karner
       曼森·特鲁布拉德 Mason Trueblood

◎标  签 生活 | 爱情 | 温情 | NoNudity | 约炮

◎简  介

  The Morning After is a feature film that consists of 8 vignettes that are inter-cut throughout the film. The 8 vignettes are about when you wake up next to someone the next morning...
Video
ID                                       : 1
Format                                   : AVC
Format/Info                              : Advanced Video Codec
Format profile                           :
Format settings                          : CABAC / 4 Ref Frames
Format settings, CABAC                   : Yes
Format settings, Reference frames        : 4 frames
Codec ID                                 : V_MPEG4/ISO/AVC
Duration                                 : 1 h 17 min
Bit rate                                 : 9 798 kb/s
Width                                    : 1 920 pixels
Height                                   : 1 080 pixels
Display aspect ratio                     : 16:9
Frame rate mode                          : Constant
Frame rate                               : 23.976 (24000/1001/189150) FPS
Color space                              : YUV
Chroma subsampling                       : 4:2:0
Bit depth                                : 8 bits
Scan type                                : Progressive
Bits/(Pixel*Frame)                       : 0.197
Stream size                              : 5.33 GiB (98%)
Writing library                          : x264 core 157 r2935 545de2f
Encoding settings                        : cabac=1 / ref=4 / deblock=1:-3:-3 / analyse=0x3:0x133 / me=umh / subme=10 / psy=1 / psy_rd=1.00:0.00 / mixed_ref=1 / me_range=32 / chroma_me=1 / trellis=2 / 8x8dct=1 / cqm=0 / deadzone=21,11 / fast_pskip=0 / chroma_qp_offset=-2 / threads=12 / lookahead_threads=3 / sliced_threads=0 / nr=0 / decimate=0 / interlaced=0 / bluray_compat=0 / constrained_intra=0 / bframes=16 / b_pyramid=2 / b_adapt=2 / b_bias=0 / direct=3 / weightb=1 / open_gop=0 / weightp=1 / keyint=240 / keyint_min=24 / scenecut=40 / intra_refresh=0 / rc_lookahead=60 / rc=crf / mbtree=0 / crf=17.0 / qcomp=0.60 / qpmin=0 / qpmax=69 / qpstep=4 / vbv_maxrate=62500 / vbv_bufsize=78125 / crf_max=0.0 / nal_hrd=none / filler=0 / ip_ratio=1.40 / pb_ratio=1.30 / aq=1:0.70
Default                                  : Yes
Forced                                   : No
Color range                              : Limited
Color primaries                          : BT.709
Transfer characteristics                 : BT.709
Matrix coefficients                      : BT.709

Audio
ID                                       : 2
Format                                   : AAC LC
Format/Info                              : Advanced Audio Codec Low Complexity
Codec ID                                 : A_AAC-2
Duration                                 : 1 h 17 min
Bit rate                                 : 200 kb/s
Channel(s)                               : 2 channels
Channel layout                           : L R
Sampling rate                            : 48.0 kHz
Frame rate                               : 46.875 FPS (1024 SPF)
Compression mode                         : Lossy
Stream size                              : 112 MiB (2%)
Language                                 : English
Default                                  : Yes
Forced                                   : No

Menu
00:00:00.000                             : :Chapter 1
00:08:11.616                             : :Chapter 2
00:17:40.977                             : :Chapter 3
00:27:00.911                             : :Chapter 4
00:36:56.965                             : :Chapter 5
00:47:08.492                             : :Chapter 6
00:58:03.689                             : :Chapter 7
01:07:50.525                             : :Chapter 8
01:14:32.635                             : :Chapter 9

c949c0c8d77b81dae38c02eeb3ed136b.png

[/url]7f07d4a79654c782ee716364804236bf.png

[/url]ec80172b40ae6fb06e6d525fb0a374d3.png

[/url]



                                                                                                                                                                                                        
                                                                                                                                                                                                                                                                                                                                                                                                                                                                                                                                                                                                                                                                                                                                                                                                                                                        
f3f4dabd570325d7fd75dee15c3e8d58.torrent (14.23 KB, 下载次数: 0)

回复

使用道具 举报

小黑屋|西西论坛

本网站所有资源来自网络,如无意中侵犯了您的权益,请发邮件至 [email protected],立即清除相关链接

GMT+8, 2022-1-20 04:39 , Processed in 0.120366 second(s), 17 queries .

Powered by Discuz! X3.2

© 2001-2013 Comsenz Inc.

快速回复 返回顶部 返回列表