西西论坛

 找回密码
 立即注册
搜索

踩虎尾的男人 The.Men.Who.Tread.on.the.Tigers.Tail.1945.JAPANESE.1080p.BluRay.x26 ...

[复制链接]
admin 发表于 2021-12-31 10:00:10 | 显示全部楼层 |阅读模式
踩虎尾的男人 The.Men.Who.Tread.on.the.Tigers.Tail.1945.JAPANESE.1080p.BluRay.x264.FLAC                                                                                                                                                                                                                                                                                                                                                                                                                                                                                                                                        -->
帖子完整标题:踩虎尾的男人 The.Men.Who.Tread.on.the.Tigers.Tail.1945.JAPANESE.1080p.BluRay.x264.FLAC2.0-PTer 8.78GB





◎译  名 踩虎尾的男人/The Men Who Tread on the Tiger's Tail/踏虎尾
◎片  名 虎の尾を踏む男達
◎年  代 1952
◎产  地 日本
◎类  别 剧情 / 惊悚 / 冒险
◎语  言 日语
◎上映日期 1952-04-24(日本)
◎豆瓣评分 7.4/10 from 1896 users
◎豆瓣链接 
◎片  长 59分钟
◎导  演 黑泽明 Akira Kurosawa
◎编  剧 黑泽明 Akira Kurosawa
◎主  演 大河内传次郎 Denjir? ?k?chi
       藤田进 Susumu Fujita
       榎本健一 Kenichi Enomoto
       森雅之 Masayuki Mori
       志村乔 Takashi Shimura
       河野秋武 Akitake K?no
       小杉义男 Yoshio Kosugi
       岩井半四郎 Hanshiro Iwai
       久松保夫 Yasuo Hisamatsu
       清川荘司 S?ji Kiyokawa
       横尾??泥海男 Debuo Y?ko

◎标  签 黑泽明 | 日本 | 日本电影 | 1945 | 黑白 | 武士 | 黑澤明 | 剧情

◎简  介

  敗戦を挟んで製作され、占領軍の検閲でオクラ入りとなり、講和条約締結後の1952年に初めて上映された黒澤の傑作。能の『安宅』とその歌舞伎化の『勧進帳』をもとに、源頼朝から逮捕令が出された義経と弁慶一行の“安宅の関越え“を描く。黒澤は義経一行7人に付き添うおしゃべりな強力(ごうりき)を創出し、エノケンのキャラクターを存分に活用している。大河内伝次郎の弁慶とエノケンの強力、このコントラストが目ざましい効果を上げ、この映画を非凡なものにした。エノケンの軽妙さが滅びいく者たちの悲劇性を際立たせる。結末で酒に酔いしれる弁慶の表情、目覚めると一人残されていた強力の見せる涙など詩情豊かな一編。
Video
ID                                       : 1
Format                                   : AVC
Format/Info                              : Advanced Video Codec
Format profile                           :
Format settings                          : CABAC / 5 Ref Frames
Format settings, CABAC                   : Yes
Format settings, Reference frames        : 5 frames
Codec ID                                 : V_MPEG4/ISO/AVC
Duration                                 : 59 min 21 s
Bit rate                                 : 20.9 Mb/s
Width                                    : 1 460 pixels
Height                                   : 1 080 pixels
Display aspect ratio                     : 4:3
Frame rate mode                          : Constant
Frame rate                               : 23.976 (24000/1001/189150) FPS
Color space                              : YUV
Chroma subsampling                       : 4:2:0
Bit depth                                : 8 bits
Scan type                                : Progressive
Bits/(Pixel*Frame)                       : 0.553
Stream size                              : 8.67 GiB (99%)
Title                                    : Video
Writing library                          : x264 core 158 r2984+47 456d10a t_mod_New [ X86_64]
Encoding settings                        : cabac=1 / ref=5 / deblock=1:-3:-3 / analyse=0x3:0x133 / me=umh / subme=11 / psy=1 / fade_compensate=0.00 / psy_rd=1.10:0.00 / mixed_ref=1 / me_range=32 / chroma_me=1 / trellis=2 / 8x8dct=1 / cqm=0 / deadzone=21,11 / fast_pskip=0 / chroma_qp_offset=-2 / threads=6 / lookahead_threads=1 / sliced_threads=0 / nr=0 / decimate=0 / interlaced=0 / bluray_compat=0 / constrained_intra=0 / fgo=0 / bframes=10 / b_pyramid=2 / b_adapt=2 / b_bias=0 / direct=3 / weightb=1 / open_gop=0 / weightp=2 / keyint=250 / keyint_min=23 / scenecut=40 / intra_refresh=0 / rc_lookahead=250 / rc=crf / mbtree=0 / crf=17.2000 / qcomp=0.55 / qpmin=0:0:0 / qpmax=69:69:69 / qpstep=4 / vbv_maxrate=62500 / vbv_bufsize=78125 / crf_max=0.0 / nal_hrd=none / filler=0 / ip_ratio=1.30 / pb_ratio=1.20 / aq=2:0.80 / aq-sensitivity=10.00 / aq-factor=1.00:1.00:1.00 / aq2=0 / aq3=0
Language                                 : Japanese
Default                                  : Yes
Forced                                   : No
Color range                              : Limited
Color primaries                          : BT.709
Matrix coefficients                      : BT.709

Audio
ID                                       : 2
Format                                   : FLAC
Format/Info                              : Free Lossless Audio Codec
Codec ID                                 : A_FLAC
Duration                                 : 59 min 21 s
Bit rate mode                            : Variable
Bit rate                                 : 244 kb/s
Channel(s)                               : 2 channels
Channel layout                           : L R
Sampling rate                            : 48.0 kHz
Frame rate                               : 11.719 FPS (4096 SPF)
Bit depth                                : 16 bits
Compression mode                         : Lossless
Stream size                              : 103 MiB (1%)
Title                                    : Japanese
Writing library                          : libFLAC 1.2.1 (UTC 2007-09-17)
Language                                 : Japanese
Default                                  : Yes
Forced                                   : No

Text #1
ID                                       : 3
Format                                   : UTF-8
Codec ID                                 : S_TEXT/UTF8
Codec ID/Info                            : UTF-8 Plain Text
Duration                                 : 59 min 6 s
Bit rate                                 : 33 b/s
Count of elements                        : 492
Stream size                              : 14.5 KiB (0%)
Title                                    : English
Language                                 : English
Default                                  : Yes
Forced                                   : No

Text #2
ID                                       : 4
Format                                   : PGS
Muxing mode                              : zlib
Codec ID                                 : S_HDMV/PGS
Codec ID/Info                            : Picture based subtitle format used on BDs/HD-DVDs
Duration                                 : 57 min 7 s
Bit rate                                 : 27.5 kb/s
Count of elements                        : 900
Stream size                              : 11.2 MiB (0%)
Title                                    : Japanese
Language                                 : Japanese
Default                                  : No
Forced                                   : No

Menu
00:00:00.000                             : en:00:00:00.000
00:01:00.310                             : en:00:01:00.310
00:01:59.786                             : en:00:01:59.786
00:02:53.590                             : en:00:02:53.590
00:04:38.487                             : en:00:04:38.487
00:16:54.513                             : en:00:16:54.513
00:17:57.410                             : en:00:17:57.410
00:19:08.230                             : en:00:19:08.230
00:22:29.765                             : en:00:22:29.765
00:45:22.887                             : en:00:45:22.887
00:57:00.417                             : en:00:57:00.417
00:59:11.757                             : en:00:59:11.757

f158facac76ad21a125b7cb06bbdff0c.png

[/url]534e45d1d1a5ca60d771133c9ba3792d.png

[/url]422d6fab1a1e03bea24f68c9e7da0267.png

[/url]



                                                                                                                                                                                                        
                                                                                                                                                                                                                                                                                                                                                                                                                                                                                                                                                                                                                                                                                                                                                                                                                                                        
65025444c4d780859af5db529b8f0f62.torrent (22.62 KB, 下载次数: 0)

回复

使用道具 举报

小黑屋|西西论坛

本网站所有资源来自网络,如无意中侵犯了您的权益,请发邮件至 [email protected],立即清除相关链接

GMT+8, 2022-1-20 04:28 , Processed in 0.143644 second(s), 17 queries .

Powered by Discuz! X3.2

© 2001-2013 Comsenz Inc.

快速回复 返回顶部 返回列表