西西论坛

 找回密码
 立即注册
搜索

道路崎岖/双虎将 Walk.a.Crooked.Mile.1948.1080p.BluRay.x264.FLAC.1.0-HANDJOB 7.03 ...

[复制链接]
admin 发表于 2021-12-31 10:00:07 | 显示全部楼层 |阅读模式
道路崎岖/双虎将 Walk.a.Crooked.Mile.1948.1080p.BluRay.x264.FLAC.1.0-HANDJOB 7.03GB                                                                                                                                                                                                                                                                                                                                                                                                                                                                                                                                        -->
帖子完整标题:道路崎岖/双虎将 Walk.a.Crooked.Mile.1948.1080p.BluRay.x264.FLAC.1.0-HANDJOB 7.03GB



e87d39fb1fb6db57ca4ccc40b7ae6e86.jpg



◎译  名 道路崎岖/双虎将
◎片  名 Walk a Crooked Mile
◎年  代 1948
◎产  地 美国
◎类  别 剧情 / 犯罪
◎语  言 英语
◎上映日期 
◎豆瓣评分 /10 from 0 users
◎豆瓣链接 
◎导  演 戈登·道格拉斯 Gordon Douglas
◎编  剧 乔治·布鲁斯 George Bruce
◎主  演 路易斯·海沃德 Louis Hayward
       丹尼斯·欧基夫 Dennis O'Keefe

◎标  签 美国 | 黑色电影 | 犯罪 | Film-Noir | 黑色 | 1948年 | 间谍 | 戈登.道格拉斯

◎简  介

  暂无相关剧情介绍
Video
ID                                       : 1
Format                                   : AVC
Format/Info                              : Advanced Video Codec
Format profile                           :
Format settings                          : CABAC / 5 Ref Frames
Format settings, CABAC                   : Yes
Format settings, Reference frames        : 5 frames
Codec ID                                 : V_MPEG4/ISO/AVC
Duration                                 : 1 h 31 min
Bit rate                                 : 10.8 Mb/s
Width                                    : 1 440 pixels
Height                                   : 1 080 pixels
Display aspect ratio                     : 4:3
Frame rate mode                          : Constant
Frame rate                               : 23.976 (24000/1001/189150) FPS
Color space                              : YUV
Chroma subsampling                       : 4:2:0
Bit depth                                : 8 bits
Scan type                                : Progressive
Bits/(Pixel*Frame)                       : 0.289
Stream size                              : 6.87 GiB (98%)
Writing library                          : x264 core 157 r2935 545de2f
Encoding settings                        : cabac=1 / ref=5 / deblock=1:-3:-3 / analyse=0x3:0x133 / me=umh / subme=10 / psy=1 / psy_rd=1.00:0.00 / mixed_ref=1 / me_range=32 / chroma_me=1 / trellis=2 / 8x8dct=1 / cqm=0 / deadzone=21,11 / fast_pskip=0 / chroma_qp_offset=-2 / threads=18 / lookahead_threads=4 / sliced_threads=0 / nr=0 / decimate=0 / interlaced=0 / bluray_compat=0 / constrained_intra=0 / bframes=16 / b_pyramid=2 / b_adapt=2 / b_bias=0 / direct=3 / weightb=1 / open_gop=0 / weightp=1 / keyint=240 / keyint_min=24 / scenecut=40 / intra_refresh=0 / rc_lookahead=60 / rc=crf / mbtree=0 / crf=21.2 / qcomp=0.60 / qpmin=0 / qpmax=69 / qpstep=4 / vbv_maxrate=62500 / vbv_bufsize=78125 / crf_max=0.0 / nal_hrd=none / filler=0 / ip_ratio=1.40 / pb_ratio=1.30 / aq=2:1.00
Default                                  : Yes
Forced                                   : No
Color range                              : Limited
Color primaries                          : BT.709
Transfer characteristics                 : BT.709
Matrix coefficients                      : BT.709

Audio
ID                                       : 2
Format                                   : FLAC
Format/Info                              : Free Lossless Audio Codec
Codec ID                                 : A_FLAC
Duration                                 : 1 h 31 min
Bit rate mode                            : Variable
Bit rate                                 : 248 kb/s
Channel(s)                               : 1 channel
Sampling rate                            : 48.0 kHz
Frame rate                               : 11.719 FPS (4096 SPF)
Bit depth                                : 16 bits
Compression mode                         : Lossless
Stream size                              : 162 MiB (2%)
Writing library                          : libFLAC 1.2.1 (UTC 2007-09-17)
Language                                 : English
Default                                  : Yes
Forced                                   : No

Text
ID                                       : 3
Format                                   : UTF-8
Codec ID                                 : S_TEXT/UTF8
Codec ID/Info                            : UTF-8 Plain Text
Duration                                 : 1 h 29 min
Bit rate                                 : 85 b/s
Count of elements                        : 1357
Stream size                              : 56.0 KiB (0%)
Language                                 : English
Default                                  : No
Forced                                   : No

Menu
00:00:00.000                             : :Chapter 1
00:08:22.168                             : :Chapter 2
00:18:39.493                             : :Chapter 3
00:27:52.337                             : :Chapter 4
00:37:18.737                             : :Chapter 5
00:47:46.489                             : :Chapter 6
00:54:20.716                             : :Chapter 7
01:02:32.165                             : :Chapter 8
01:11:58.856                             : :Chapter 9
01:22:51.133                             : :Chapter 10

2e34b9fb7981bf79cb409fa68ebf3909.png

[/url]64f76554a5b2ed6fdbae9f971dabb63f.png

[/url]70839f4c2459caea8332cd94158dfaad.png

[/url]



                                                                                                                                                                                                        
                                                                                                                                                                                                                                                                                                                                                                                                                                                                                                                                                                                                                                                                                                                                                                                                                                                        
06bb24f972cadad1b81beadb40eff1fa.torrent (18.23 KB, 下载次数: 0)

回复

使用道具 举报

小黑屋|西西论坛

本网站所有资源来自网络,如无意中侵犯了您的权益,请发邮件至 [email protected],立即清除相关链接

GMT+8, 2022-6-27 04:38 , Processed in 0.112136 second(s), 17 queries .

Powered by Discuz! X3.2

© 2001-2013 Comsenz Inc.

快速回复 返回顶部 返回列表