西西论坛

 找回密码
 立即注册
搜索

除暴 Caught.In.Time.2020.CHINESE.1080p.BluRay.x264.DD5.1-iKiW 8.95GB

[复制链接]
admin 发表于 2021-12-31 10:00:04 | 显示全部楼层 |阅读模式
除暴 Caught.In.Time.2020.CHINESE.1080p.BluRay.x264.DD5.1-iKiW 8.95GB                                                                                                                                                                                                                                                                                                                                                                                                                                                                                                                                        -->
帖子完整标题:除暴 Caught.In.Time.2020.CHINESE.1080p.BluRay.x264.DD5.1-iKiW 8.95GB



f9c089169101bf14b6ba2b782e1b6c8d.jpg



◎译  名 A penny/Caught in Time/Caught on Time/限期破案
◎片  名 除暴
◎年  代 2020
◎产  地 中国香港,中国大陆
◎类  别 剧情 / 动作 / 犯罪
◎语  言 粤语,汉语普通话
◎上映日期 2020-11-20(中国大陆)
◎豆瓣评分 6.1/10 from 233358 users
◎豆瓣链接 
◎片  长 95分钟
◎导  演 刘浩良 Ho Leung Lau
◎编  剧 刘浩良 Ho Leung Lau / 洪亮 Liang Hong
◎主  演 王千源 Qianyuan Wang
       吴彦祖 Daniel Wu
       春夏 Jessie Li
       卫诗雅 Michelle Wai
       大力 Dali Hou
       于笑 Xiao Yu
       胡子程 Zicheng Hu
       李晓川 Xiaochuan Li
       洪浚嘉 Junjia Hong
       纪焕博 Rock Ji
       庞雨浓 Yunong Pang
       答有为 Youwei Da
       鲍起静 Hee Ching Paw
       尤勇智 Yongzhi You
       王超北 Chaobei Wang
       胡晨曦 Chenxi Hu
       姜皓文 Philip Keung Ho-Man
       程玉莹 Yuying Cheng

◎标  签 警匪 | 犯罪 | 动作 | 中国大陆 | 2020 | 香港 | 剧情 | 电影

◎简  介

  上世纪90年代,刑警钟诚受命追捕悍匪集团“老鹰帮”。这群悍匪犯下惊天连环劫案,训练有素且纪律严明,首领张隼更屡次恶意挑衅,矛头直指钟诚。为将“老鹰帮”捉拿归案,钟诚带领刑警小队咬死不放,誓与恶势力斗争到底。数年间,警匪上演了一次次紧张刺激的较量,悍匪愈加猖獗,警方步步逼近,双方展开殊死对决……

◎获奖情况

  第13届澳门国际电影节 ?(2021)
  金莲花奖最佳编剧(提名) 刘浩良
Video
ID                                       : 1
Format                                   : AVC
Format/Info                              : Advanced Video Codec
Format profile                           :
Format settings                          : CABAC / 5 Ref Frames
Format settings, CABAC                   : Yes
Format settings, Reference frames        : 5 frames
Codec ID                                 : V_MPEG4/ISO/AVC
Duration                                 : 1 h 34 min
Bit rate                                 : 12.4 Mb/s
Width                                    : 1 920 pixels
Height                                   : 804 pixels
Display aspect ratio                     : 2.40:1
Frame rate mode                          : Constant
Frame rate                               : 24.000 FPS
Color space                              : YUV
Chroma subsampling                       : 4:2:0
Bit depth                                : 8 bits
Scan type                                : Progressive
Bits/(Pixel*Frame)                       : 0.334
Stream size                              : 8.10 GiB (91%)
Writing library                          : x264 core 129 r2245 bc13772
Encoding settings                        : cabac=1 / ref=5 / deblock=1:-3:-3 / analyse=0x3:0x133 / me=umh / subme=11 / psy=1 / psy_rd=1.05:0.05 / mixed_ref=1 / me_range=64 / chroma_me=1 / trellis=2 / 8x8dct=1 / cqm=0 / deadzone=21,11 / fast_pskip=0 / chroma_qp_offset=-3 / threads=24 / lookahead_threads=4 / sliced_threads=0 / nr=0 / decimate=1 / interlaced=0 / bluray_compat=0 / constrained_intra=0 / bframes=10 / b_pyramid=2 / b_adapt=2 / b_bias=0 / direct=3 / weightb=1 / open_gop=0 / weightp=2 / keyint=250 / keyint_min=24 / scenecut=40 / intra_refresh=0 / rc_lookahead=60 / rc=2pass / mbtree=1 / bitrate=12391 / ratetol=1.0 / qcomp=0.60 / qpmin=0 / qpmax=69 / qpstep=4 / cplxblur=20.0 / qblur=0.5 / vbv_maxrate=40000 / vbv_bufsize=30000 / nal_hrd=none / ip_ratio=1.40 / aq=1:0.80
Language                                 : English
Default                                  : Yes
Forced                                   : No

Audio #1
ID                                       : 2
Format                                   : AC-3
Format/Info                              : Audio Coding 3
Commercial name                          : Dolby Digital
Format settings                          : Dolby Surround EX
Codec ID                                 : A_AC3
Duration                                 : 1 h 34 min
Bit rate mode                            : Constant
Bit rate                                 : 640 kb/s
Channel(s)                               : 6 channels
Channel layout                           : L R C LFE Ls Rs
Sampling rate                            : 48.0 kHz
Frame rate                               : 31.250 FPS (1536 SPF)
Compression mode                         : Lossy
Stream size                              : 431 MiB (5%)
Title                                    : 粤语
Language                                 : Chinese
Service kind                             : Complete Main
Default                                  : Yes
Forced                                   : No

Audio #2
ID                                       : 3
Format                                   : AC-3
Format/Info                              : Audio Coding 3
Commercial name                          : Dolby Digital
Format settings                          : Dolby Surround EX
Codec ID                                 : A_AC3
Duration                                 : 1 h 34 min
Bit rate mode                            : Constant
Bit rate                                 : 640 kb/s
Channel(s)                               : 6 channels
Channel layout                           : L R C LFE Ls Rs
Sampling rate                            : 48.0 kHz
Frame rate                               : 31.250 FPS (1536 SPF)
Compression mode                         : Lossy
Stream size                              : 431 MiB (5%)
Title                                    : 国语
Language                                 : Chinese
Service kind                             : Complete Main
Default                                  : No
Forced                                   : No

Text #1
ID                                       : 4
Format                                   : UTF-8
Codec ID                                 : S_TEXT/UTF8
Codec ID/Info                            : UTF-8 Plain Text
Duration                                 : 1 h 26 min
Bit rate                                 : 34 b/s
Count of elements                        : 962
Stream size                              : 21.5 KiB (0%)
Language                                 : English
Default                                  : Yes
Forced                                   : No

Text #2
ID                                       : 5
Format                                   : UTF-8
Codec ID                                 : S_TEXT/UTF8
Codec ID/Info                            : UTF-8 Plain Text
Duration                                 : 1 h 26 min
Bit rate                                 : 30 b/s
Count of elements                        : 972
Stream size                              : 19.0 KiB (0%)
Title                                    : 简体
Language                                 : Chinese
Default                                  : No
Forced                                   : No

Text #3
ID                                       : 6
Format                                   : UTF-8
Codec ID                                 : S_TEXT/UTF8
Codec ID/Info                            : UTF-8 Plain Text
Duration                                 : 1 h 26 min
Bit rate                                 : 30 b/s
Count of elements                        : 972
Stream size                              : 19.0 KiB (0%)
Title                                    : 繁体
Language                                 : Chinese
Default                                  : No
Forced                                   : No

f44d9b39055dc73445145de2ee57690d.png

[/url]



                                                                                                                                                                                                        
                                                                                                                                                                                                                                                                                                                                                                                                                                                                                                                                                                                                                                                                                                                                                                                                                                                        
290792c0b26eb68a738dbdf7086320f6.torrent (23.01 KB, 下载次数: 0)

回复

使用道具 举报

小黑屋|西西论坛

本网站所有资源来自网络,如无意中侵犯了您的权益,请发邮件至 [email protected],立即清除相关链接

GMT+8, 2022-1-20 03:54 , Processed in 0.141171 second(s), 17 queries .

Powered by Discuz! X3.2

© 2001-2013 Comsenz Inc.

快速回复 返回顶部 返回列表