西西论坛

 找回密码
 立即注册
搜索

鲨鱼的儿子 The.Son.of.the.Shark.1993.FRENCH.1080p.BluRay.x264.DTS-SbR 13.22GB .. ...

[复制链接]
admin 发表于 2021-12-31 10:00:00 | 显示全部楼层 |阅读模式
鲨鱼的儿子 The.Son.of.the.Shark.1993.FRENCH.1080p.BluRay.x264.DTS-SbR 13.22GB                                                                                                                                                                                                                                                                                                                                                                                                                                                                                                                                        -->
帖子完整标题:鲨鱼的儿子 The.Son.of.the.Shark.1993.FRENCH.1080p.BluRay.x264.DTS-SbR 13.22GB



80d28f704bca0dfc76ec8bf388261482.jpg



◎译  名 鲨鱼的儿子/The Son of the Shark/鲨鱼之子
◎片  名 Le fils du requin
◎年  代 1993
◎产  地 比利时/法国/卢森堡
◎类  别 剧情 / 犯罪
◎语  言 法语
◎上映日期 1993
◎豆瓣评分 /10 from 0 users
◎豆瓣链接 
◎片  长 90 分钟
◎导  演 阿涅丝·梅尔莱 Agnès Merlet
◎编  剧 圣地亚哥·阿米戈雷纳 Santiago Amigorena / 阿涅丝·梅尔莱 Agnès Merlet
◎主  演 桑德利娜·布兰琪 Sandrine Blancke
       马克西姆·勒鲁 Maxime Leroux
       勒内·马尔雅克 René Marjac
       Renan Mazéas Renan Mazéas
       友兰达·梦露 Yolande Moreau

◎标  签 儿童 | 法国电影 | 法国 | 1993 | 1990s | 犯罪 | 未推(一般) | 成长

◎简  介

  Brothers Martin and Simon, not yet teens, are incorrigible vandals; Martin runs away from reform school, Simon from foster homes, and they always find each other in a seacoast town of Lignan, where their destructive behavior is infamous. (It may date to their mother's leaving the family.) Martin is philosophical, romantic, and poetic: he dreams of being the son of a shark; he holds tight to a book about goldfish his mother gave him. In both halting and wild ways, he tries to court Marie, a neighbor girl. Simon, with a pocketknife and an intractable will, seems more dangerous to others. What, on earth, is there for these children-becoming-men? - IMDb

◎获奖情况

  第19届法国凯撒电影奖 ?(1994)
  最佳处女作(提名) 阿涅丝·梅尔莱
Video
ID                                       : 1
Format                                   : AVC
Format/Info                              : Advanced Video Codec
Format profile                           :
Format settings                          : CABAC / 4 Ref Frames
Format settings, CABAC                   : Yes
Format settings, Reference frames        : 4 frames
Codec ID                                 : V_MPEG4/ISO/AVC
Duration                                 : 1 h 29 min
Bit rate                                 : 19.7 Mb/s
Width                                    : 1 920 pixels
Height                                   : 818 pixels
Display aspect ratio                     : 2.35:1
Frame rate mode                          : Constant
Frame rate                               : 24.000 FPS
Color space                              : YUV
Chroma subsampling                       : 4:2:0
Bit depth                                : 8 bits
Scan type                                : Progressive
Bits/(Pixel*Frame)                       : 0.523
Stream size                              : 12.3 GiB (93%)
Writing library                          : x264 core 164 r3079+60M cd8c3e1 devel [(8 & 10) X86_64]
Encoding settings                        : cabac=1 / ref=4 / deblock=1:-3:-3 / analyse=0x3:0x133 / me=umh / subme=11 / psy=1 / fade_compensate=0.00 / psy_rd=1.00:0.00 / mixed_ref=1 / me_range=32 / chroma_me=1 / trellis=2 / 8x8dct=1 / cqm=0 / deadzone=21,11 / fast_pskip=1 / chroma_qp_offset=-2 / threads=32 / lookahead_threads=6 / sliced_threads=0 / nr=0 / decimate=1 / interlaced=0 / bluray_compat=0 / constrained_intra=0 / fgo=0 / bframes=10 / b_pyramid=2 / b_adapt=2 / b_bias=0 / direct=3 / weightb=1 / open_gop=0 / weightp=2 / keyint=250 / keyint_min=24 / scenecut=40 / intra_refresh=0 / rc=crf / mbtree=0 / crf=18.0000 / qcomp=0.65 / qpmin=0:0:0 / qpmax=69:69:69 / qpstep=4 / ip_ratio=1.25 / pb_ratio=1.20 / aq=1:0.60 / aq-sensitivity=10.00 / aq-factor=1.00:1.00:1.00 / aq2=0 / aq3=0
Language                                 : French
Default                                  : Yes
Forced                                   : No

Audio
ID                                       : 2
Format                                   : DTS
Format/Info                              : Digital Theater Systems
Codec ID                                 : A_DTS
Duration                                 : 1 h 29 min
Bit rate mode                            : Constant
Bit rate                                 : 1 509 kb/s
Channel(s)                               : 6 channels
Channel layout                           : C L R Ls Rs LFE
Sampling rate                            : 48.0 kHz
Frame rate                               : 93.750 FPS (512 SPF)
Bit depth                                : 24 bits
Compression mode                         : Lossy
Stream size                              : 963 MiB (7%)
Language                                 : French
Default                                  : Yes
Forced                                   : No

Text #1
ID                                       : 3
Format                                   : ASS
Codec ID                                 : S_TEXT/ASS
Codec ID/Info                            : Advanced Sub Station Alpha
Duration                                 : 1 h 28 min
Bit rate                                 : 43 b/s
Count of elements                        : 553
Compression mode                         : Lossless
Stream size                              : 28.0 KiB (0%)
Language                                 : English
Default                                  : No
Forced                                   : No

Text #2
ID                                       : 4
Format                                   : UTF-8
Codec ID                                 : S_TEXT/UTF8
Codec ID/Info                            : UTF-8 Plain Text
Duration                                 : 1 h 28 min
Bit rate                                 : 24 b/s
Count of elements                        : 553
Stream size                              : 16.1 KiB (0%)
Language                                 : English
Default                                  : No
Forced                                   : No

Text #3
ID                                       : 5
Format                                   : ASS
Codec ID                                 : S_TEXT/ASS
Codec ID/Info                            : Advanced Sub Station Alpha
Duration                                 : 1 h 29 min
Bit rate                                 : 84 b/s
Count of elements                        : 803
Compression mode                         : Lossless
Stream size                              : 55.3 KiB (0%)
Language                                 : French
Default                                  : No
Forced                                   : No

Menu
00:00:00.000                             : en:Chapter 01
00:06:11.375                             : en:Chapter 02
00:11:49.417                             : en:Chapter 03
00:21:52.875                             : en:Chapter 04
00:28:40.542                             : en:Chapter 05
00:32:52.000                             : en:Chapter 06
00:43:37.458                             : en:Chapter 07
00:48:07.042                             : en:Chapter 08
00:57:09.500                             : en:Chapter 09
01:05:25.250                             : en:Chapter 10
01:09:18.167                             : en:Chapter 11
01:18:18.375                             : en:Chapter 12

7988c5edc72874853c6cba1a3b290ac4.png

[/url]51982d25b13e6c60c99fddc6370af019.png

[/url]



                                                                                                                                                                                                        
                                                                                                                                                                                                                                                                                                                                                                                                                                                                                                                                                                                                                                                                                                                                                                                                                                                        
d586ef3d1995f4df26661be47fb71e8a.torrent (17.17 KB, 下载次数: 0)

回复

使用道具 举报

小黑屋|西西论坛

本网站所有资源来自网络,如无意中侵犯了您的权益,请发邮件至 [email protected],立即清除相关链接

GMT+8, 2022-6-27 04:03 , Processed in 0.115018 second(s), 17 queries .

Powered by Discuz! X3.2

© 2001-2013 Comsenz Inc.

快速回复 返回顶部 返回列表