西西论坛

 找回密码
 立即注册
搜索

亨利-乔治·克鲁佐的地狱 Henri-Georges.Clouzots.Inferno.2009.FRENCH.1080p.BluRay. ...

[复制链接]
admin 发表于 2021-12-31 09:59:57 | 显示全部楼层 |阅读模式
亨利-乔治·克鲁佐的地狱 Henri-Georges.Clouzots.Inferno.2009.FRENCH.1080p.BluRay.x264.DD5.1-                                                                                                                                                                                                                                                                                                                                                                                                                                                                                                                                        -->
帖子完整标题:亨利-乔治·克鲁佐的地狱 Henri-Georges.Clouzots.Inferno.2009.FRENCH.1080p.BluRay.x264.DD5.1-CALiGARi 8.71GB



df454acb5b4b552ac25ed91cf3d7ad54.jpg



◎译  名 亨利-乔治·克鲁佐的地狱/Henri-George Clouzot's Inferno/紧张大师的无间地狱(台)
◎片  名 L'enfer d'Henri-Georges Clouzot
◎年  代 2009
◎产  地 法国
◎类  别 纪录片
◎语  言 法语
◎上映日期 2009-11-11(法国)
◎豆瓣评分 8.0/10 from 538 users
◎豆瓣链接 
◎片  长 102 分钟
◎导  演 塞尔日·布朗伯格 Serge Bromberg
◎编  剧 塞尔日·布朗伯格 Serge Bromberg
◎主  演 罗密·施奈德 Romy Schneider
       贝热尼丝·贝乔 Bérénice Bejo
       塞尔日·雷吉亚尼 Serge Reggiani
       雅克·冈布兰 Jacques Gamblin
       达尼·卡雷尔 Dany Carrel
       卡特琳娜·阿莱格雷 Catherine Allégret
       布兰切特·布若尼 Blanchette Brunoy
       亨利-乔治·克鲁佐 Henri-Georges Clouzot
       让-路易斯·杜卡姆 Jean-Louis Ducarme

◎标  签 纪录片 | 法国 | 亨利·乔治·克鲁佐 | 法国电影 | Henri-Georges_Clouzot | 2009 | Documentary | 2000s

◎简  介

  坎城柏林金獎導演Henri-Georges Clouzot,1964年曾開拍一部號稱預算無上限的傳奇電影,但始終無人得以一窺全貌。在導演Serge Bromberg鍥而不捨地追尋下,塵封四十餘年的秘密終於面世,萬花筒般的影像瑰麗絕倫,充滿實驗性,至今看來依舊前衛。片中芳齡二十六歲的羅美雪妮黛(Romy Schneider),曾被譽為世上最美的女人,與亞蘭德倫的一段情,更為世人津津樂道。
Video
ID                                       : 1
Format                                   : AVC
Format/Info                              : Advanced Video Codec
Format profile                           :
Format settings                          : CABAC / 4 Ref Frames
Format settings, CABAC                   : Yes
Format settings, Reference frames        : 4 frames
Codec ID                                 : V_MPEG4/ISO/AVC
Duration                                 : 1 h 39 min
Bit rate                                 : 11.8 Mb/s
Width                                    : 1 920 pixels
Height                                   : 1 080 pixels
Display aspect ratio                     : 16:9
Frame rate mode                          : Constant
Frame rate                               : 23.976 (24000/1001/189150) FPS
Color space                              : YUV
Chroma subsampling                       : 4:2:0
Bit depth                                : 8 bits
Scan type                                : Progressive
Bits/(Pixel*Frame)                       : 0.238
Stream size                              : 8.26 GiB (95%)
Writing library                          : x264 core 161 r3027+52M 541aa21 devel [(8 & 10) X86_64]
Encoding settings                        : cabac=1 / ref=4 / deblock=1:-3:-3 / analyse=0x3:0x133 / me=umh / subme=10 / psy=1 / fade_compensate=0.00 / psy_rd=1.00:0.10 / mixed_ref=1 / me_range=24 / chroma_me=1 / trellis=2 / 8x8dct=1 / cqm=0 / deadzone=21,11 / fast_pskip=0 / chroma_qp_offset=-3 / threads=18 / lookahead_threads=4 / sliced_threads=0 / nr=0 / decimate=0 / interlaced=0 / bluray_compat=0 / constrained_intra=0 / fgo=0 / bframes=12 / b_pyramid=2 / b_adapt=2 / b_bias=0 / direct=3 / weightb=1 / open_gop=0 / weightp=2 / keyint=250 / keyint_min=23 / scenecut=40 / intra_refresh=0 / rc=crf / mbtree=0 / crf=21.0000 / qcomp=0.60 / qpmin=0:0:0 / qpmax=69:69:69 / qpstep=4 / ip_ratio=1.30 / pb_ratio=1.20 / aq=3:0.80 / aq-sensitivity=10.00 / aq-factor=1.00:1.00:1.00 / aq2=0 / aq3=0
Language                                 : French
Default                                  : Yes
Forced                                   : No

Audio
ID                                       : 2
Format                                   : AC-3
Format/Info                              : Audio Coding 3
Commercial name                          : Dolby Digital
Codec ID                                 : A_AC3
Duration                                 : 1 h 39 min
Bit rate mode                            : Constant
Bit rate                                 : 640 kb/s
Channel(s)                               : 6 channels
Channel layout                           : L R C LFE Ls Rs
Sampling rate                            : 48.0 kHz
Frame rate                               : 31.250 FPS (1536 SPF)
Compression mode                         : Lossy
Stream size                              : 457 MiB (5%)
Language                                 : French
Service kind                             : Complete Main
Default                                  : Yes
Forced                                   : No

Text
ID                                       : 3
Format                                   : UTF-8
Codec ID                                 : S_TEXT/UTF8
Codec ID/Info                            : UTF-8 Plain Text
Duration                                 : 1 h 36 min
Bit rate                                 : 53 b/s
Count of elements                        : 963
Stream size                              : 37.8 KiB (0%)
Language                                 : English
Default                                  : Yes
Forced                                   : No

Menu
00:00:00.000                             : :Chapter 01
00:11:12.338                             : :Chapter 02
00:20:47.913                             : :Chapter 03
00:29:04.326                             : :Chapter 04
00:41:53.720                             : :Chapter 05
00:45:34.440                             : :Chapter 06
00:55:49.263                             : :Chapter 07
01:06:26.482                             : :Chapter 08
01:17:57.339                             : :Chapter 09
01:27:13.437                             : :Chapter 10
01:36:56.769                             : :Chapter 11

8ae09e8763aed71bf9c644417b2ce32d.png

[/url]5ff743d40b0bd584a48309a470cbbf80.png

[/url]



                                                                                                                                                                                                        
                                                                                                                                                                                                                                                                                                                                                                                                                                                                                                                                                                                                                                                                                                                                                                                                                                                        
10855cd7a50fca0b04ad83b7ef55c56a.torrent (22.43 KB, 下载次数: 0)

回复

使用道具 举报

小黑屋|西西论坛

本网站所有资源来自网络,如无意中侵犯了您的权益,请发邮件至 [email protected],立即清除相关链接

GMT+8, 2022-1-20 03:32 , Processed in 0.133239 second(s), 17 queries .

Powered by Discuz! X3.2

© 2001-2013 Comsenz Inc.

快速回复 返回顶部 返回列表